Subcategories
Tags
Language
Tags

Katona Twins, Juanita Lascaro, David Garcia Mir - Manuel de Falla (2009)

Posted By: ArlegZ
Katona Twins, Juanita Lascaro, David Garcia Mir - Manuel de Falla (2009)

Katona Twins, Juanita Lascaro, David Garcia Mir - Manuel de Falla (2009)
EAC | FLAC | Image (Cue & Log) ~ 236 Mb | Total time: 57:00 | Scans included
Classical | Label: Channel Classics ‎| CCSSA 28809 | Recorded: 2008

Works of Manuel de Falla - widely regarded as the most distinguished Spanish composer of the early twentieth century - are strongly influenced by Spanish folk music in which the guitar is central. Although he composed only one piece for that instrument his inspiration was flamenco and early Spanish music, including the guitar works of Gaspar Sanz. The guitar also features in Falla‘s first great success, the opera ‘La Vida Breve’. For this recording, we have selected and transcribed works in which the influence of the guitar was dominant thus translating these pieces back to their original source of inspiration. We felt that adding percussion would enhance the rhythmic element that is most characteristic for the music of Spain. We hope that showing De Falla’s work in this dynamic light will bring new audiences to his brilliant music.
Rythmic elements in exciting arrangements played by specialist DAVID GARCIA MIR.
Starring JUANITA LASCARRO, who made a spectacular British operatic debut as the heroine of Strauss' Daphne and continues to sing the coming season principal roles in many of the major European theatres.
"The twins Peter and Zoltán Katona have created a guitar duo noted for spirited interpretations, amazing virtuosity, and an uncanny ensemble that many attribute to their shared genetic heritage. The brothers from Budapest move and breathe together, and they mark changes of mood with an exchange of glances that highlights their musical decisions. And in their Saturday concert at Herbst Theatre, the Katona Twins united what had once seemed to be the irreconcilable opposites of Bream’s unbridled enthusiasm and Williams’ calm mastery. " SAN FRANCISCO CLASSICAL VOICE

Performer:
Juanita Lascaro, soprano
David Garcia Mir, percussion
Peter & Zoltán Katona, guitar

Track List:
01. Spanish Dance De Falla
El Amor Brujo
02. Introduccion y Escena
03. En la Cueva (La Noche)
04. Cancion del Amor Dolido
05. El Aparecido _ Danza del Terror
06. El Circulo Magico De Falla
07. A Media Noche (Los Sortilegios)
08. Danza Ritual del Fuego
09. Cancion del Fatuo Fuego
10. Escena
11. Pantomima
12. Danza del Juego de Amor
13. Final (Las Campanas de Amanecer)
El Sombrero de Tres Picos
14. Danza del Molinero
15. Danza de los Vecinos
16. Danza de la Molinera
Siete Canciones Populartes Espanolas
17. El Pano Moruno
18. Seguidilla Murciana
19. Asturiana
20. Jota
21. Nana
22. Cancion
23. Polo
24. Homenaje
25. Tus Ojillos Negros


Exact Audio Copy V1.3 from 2. September 2016

EAC extraction logfile from 16. January 2019, 20:39

Katona Twins & al. / Manuel de Falla

Used drive : MATSHITADVD-RAM UJ8G6 Adapter: 1 ID: 0

Read mode : Secure
Utilize accurate stream : Yes
Defeat audio cache : Yes
Make use of C2 pointers : No

Read offset correction : 103
Overread into Lead-In and Lead-Out : No
Fill up missing offset samples with silence : Yes
Delete leading and trailing silent blocks : No
Null samples used in CRC calculations : Yes
Used interface : Native Win32 interface for Win NT & 2000

Used output format : User Defined Encoder
Selected bitrate : 1024 kBit/s
Quality : High
Add ID3 tag : No
Command line compressor : C:\Program Files (x86)\Exact Audio Copy\FLAC\FLAC.EXE
Additional command line options : -6 -V -T "ARTIST=%artist%" -T "TITLE=%title%" -T "ALBUM=%albumtitle%" -T "DATE=%year%" -T "TRACKNUMBER=%tracknr%" -T "GENRE=%genre%" -T "COMMENT=%comment%" -T "BAND=%albuminterpret%" -T "ALBUMARTIST=%albuminterpret%" -T "COMPOSER=%composer%" %haslyrics%–tag-from-file=LYRICS="%lyricsfile%"%haslyrics% -T "DISCNUMBER=%cdnumber%" -T "TOTALDISCS=%totalcds%" -T "TOTALTRACKS=%numtracks%" %hascover%–picture="%coverfile%"%hascover% %source% -o %dest%


TOC of the extracted CD

Track | Start | Length | Start sector | End sector
––––––––––––––––––––––––––––-
1 | 0:00.00 | 3:30.22 | 0 | 15771
2 | 3:30.22 | 0:32.40 | 15772 | 18211
3 | 4:02.62 | 1:52.60 | 18212 | 26671
4 | 5:55.47 | 1:32.53 | 26672 | 33624
5 | 7:28.25 | 2:09.10 | 33625 | 43309
6 | 9:37.35 | 1:40.73 | 43310 | 50882
7 | 11:18.33 | 0:51.28 | 50883 | 54735
8 | 12:09.61 | 3:46.28 | 54736 | 71713
9 | 15:56.14 | 1:45.37 | 71714 | 79625
10 | 17:41.51 | 1:08.27 | 79626 | 84752
11 | 18:50.03 | 3:56.24 | 84753 | 102476
12 | 22:46.27 | 2:57.55 | 102477 | 115806
13 | 25:44.07 | 1:21.45 | 115807 | 121926
14 | 27:05.52 | 2:50.00 | 121927 | 134676
15 | 29:55.52 | 3:18.35 | 134677 | 149561
16 | 33:14.12 | 3:44.60 | 149562 | 166421
17 | 36:58.72 | 1:26.08 | 166422 | 172879
18 | 38:25.05 | 1:08.50 | 172880 | 178029
19 | 39:33.55 | 2:49.66 | 178030 | 190770
20 | 42:23.46 | 2:45.60 | 190771 | 203205
21 | 45:09.31 | 1:42.32 | 203206 | 210887
22 | 46:51.63 | 1:01.17 | 210888 | 215479
23 | 47:53.05 | 1:49.55 | 215480 | 223709
24 | 49:42.60 | 3:15.69 | 223710 | 238403
25 | 52:58.54 | 3:53.72 | 238404 | 255950


Range status and errors

Selected range

Filename F:\RAT\0 - Attente UP\Katona Twins & al. - Manuel de Falla.wav

Peak level 99.4 %
Extraction speed 2.6 X
Range quality 100.0 %
Test CRC 27AD0B3C
Copy CRC 27AD0B3C
Copy OK

No errors occurred


AccurateRip summary

Track 1 accurately ripped (confidence 6) [6E9D6292] (AR v2)
Track 2 accurately ripped (confidence 7) [E15154C7] (AR v2)
Track 3 accurately ripped (confidence 7) [D67AD66C] (AR v2)
Track 4 accurately ripped (confidence 7) [7F050F0E] (AR v2)
Track 5 accurately ripped (confidence 6) [AB820BB5] (AR v2)
Track 6 accurately ripped (confidence 7) [D69EB7DE] (AR v2)
Track 7 accurately ripped (confidence 7) [592FC411] (AR v2)
Track 8 accurately ripped (confidence 7) [B1572DE2] (AR v2)
Track 9 accurately ripped (confidence 7) [5A29D6F3] (AR v2)
Track 10 accurately ripped (confidence 7) [EAC122E2] (AR v2)
Track 11 accurately ripped (confidence 7) [74135657] (AR v2)
Track 12 accurately ripped (confidence 7) [3FD3752D] (AR v2)
Track 13 accurately ripped (confidence 7) [116F1233] (AR v2)
Track 14 accurately ripped (confidence 7) [B759E8C2] (AR v2)
Track 15 accurately ripped (confidence 7) [ED43181A] (AR v2)
Track 16 accurately ripped (confidence 7) [DF60BEB2] (AR v2)
Track 17 accurately ripped (confidence 7) [8EF3B7B7] (AR v2)
Track 18 accurately ripped (confidence 7) [76EE29FC] (AR v2)
Track 19 accurately ripped (confidence 7) [20F44714] (AR v2)
Track 20 accurately ripped (confidence 7) [225EA9F7] (AR v2)
Track 21 accurately ripped (confidence 7) [FC60324C] (AR v2)
Track 22 accurately ripped (confidence 7) [603BABC0] (AR v2)
Track 23 accurately ripped (confidence 7) [CAEA8B7E] (AR v2)
Track 24 accurately ripped (confidence 7) [B0AA420D] (AR v2)
Track 25 accurately ripped (confidence 7) [DF79D387] (AR v2)

All tracks accurately ripped

End of status report

–– CUETools DB Plugin V2.1.6

[CTDB TOCID: UTd6nA_9wm.gzGcLTgLOI2dPTOI-] found
Submit result: UTd6nA_9wm.gzGcLTgLOI2dPTOI- has been confirmed
Track | CTDB Status
1 | (6/6) Accurately ripped
2 | (6/6) Accurately ripped
3 | (6/6) Accurately ripped
4 | (6/6) Accurately ripped
5 | (6/6) Accurately ripped
6 | (6/6) Accurately ripped
7 | (6/6) Accurately ripped
8 | (6/6) Accurately ripped
9 | (6/6) Accurately ripped
10 | (6/6) Accurately ripped
11 | (6/6) Accurately ripped
12 | (6/6) Accurately ripped
13 | (6/6) Accurately ripped
14 | (6/6) Accurately ripped
15 | (6/6) Accurately ripped
16 | (6/6) Accurately ripped
17 | (6/6) Accurately ripped
18 | (6/6) Accurately ripped
19 | (6/6) Accurately ripped
20 | (6/6) Accurately ripped
21 | (6/6) Accurately ripped
22 | (6/6) Accurately ripped
23 | (6/6) Accurately ripped
24 | (6/6) Accurately ripped
25 | (6/6) Accurately ripped


==== Log checksum 8AA39CFE0207E198798F08E2A5D345EC9393D8863C18935BA7134C4CAF58482E ====

Katona Twins, Juanita Lascaro, David Garcia Mir - Manuel de Falla (2009)

Thanks to the original releaser