Tags
Language
Tags

Keith Jarrett, Gary Peacock, Jack DeJohnette - Inside Out (2001)

Posted By: murena
Keith Jarrett, Gary Peacock, Jack DeJohnette - Inside Out (2001)

Keith Jarrett, Gary Peacock, Jack DeJohnette - Inside Out (2001)
EAC Rip | FLAC (Image+.cue, log) | 01:18:07 min | Covers included | 446 mb
Genre: Jazz, Contemporary Jazz / Label: ECM Records

Now into its third decade as a unit, this stupendous trio featuring pianist Keith Jarrett, bassist Gary Peacock, and drummer Jack DeJohnette has evolved into one of the most enduring and rewarding trios in the history of jazz. This brilliantly recorded live date captures this towering triad at its telepathic best. The highly imaginative and spontaneous Jarrett delivers a complex and gospel-like figure, then Peacock's fluid bass lines comment on the pianist's statement, and DeJohnette's intricate propulsions conclude the phrase. Although Bill Evans and Paul Bley first glimpsed this kind of jazz improvisation, Jarrett and his partners have created a new language that speaks with its own voice. –Eugene Holley Jr.

Tracklist:
1. From The Body
2. Inside Out
3. 341 Free Ride
4. Riot
5. When I Fall In Love

Personnel:
Keith Jarrett, piano
Gary Peacock, double bass
Jack DeJohnette, drums

Exact Audio Copy V0.99 prebeta 4 from 23. January 2008

EAC extraction logfile from 3. January 2009, 23:21

Keith Jarrett / Inside Out

Used drive : MATSHITADVD-RAM UJ-852 Adapter: 1 ID: 0

Read mode : Secure
Utilize accurate stream : Yes
Defeat audio cache : Yes
Make use of C2 pointers : No

Read offset correction : 102
Overread into Lead-In and Lead-Out : No
Fill up missing offset samples with silence : Yes
Delete leading and trailing silent blocks : No
Null samples used in CRC calculations : Yes
Used interface : Native Win32 interface for Win NT & 2000
Gap handling : Appended to previous track

Used output format : User Defined Encoder
Selected bitrate : 128 kBit/s
Quality : High
Add ID3 tag : No
Command line compressor : C:\Program Files\FLAC\flac.exe
Additional command line options : -8 -V -T "artist=%a" -T "title=%t" -T "album=%g" -T "date=%y" -T "tracknumber=%n" -T "genre=%m" %s


TOC of the extracted CD

Track | Start | Length | Start sector | End sector
––––––––––––––––––––––––––––-
1 | 0:00.20 | 23:13.30 | 20 | 104524
2 | 23:13.50 | 21:13.29 | 104525 | 200028
3 | 44:27.04 | 18:50.55 | 200029 | 284833
4 | 63:17.59 | 7:23.37 | 284834 | 318095
5 | 70:41.21 | 7:25.19 | 318096 | 351489


Track 1

Filename J:\Torrents\Keith Jarrett (2001) Inside Out\01 From The Body.wav

Pre-gap length 0:00:02.20

Peak level 98.2 %
Track quality 100.0 %
Test CRC E1AAB181
Copy CRC E1AAB181
Accurately ripped (confidence 27) [7A9C1BA6]
Copy OK

Track 2

Filename J:\Torrents\Keith Jarrett (2001) Inside Out\02 Inside Out.wav

Peak level 99.0 %
Track quality 100.0 %
Test CRC 7252A54E
Copy CRC 7252A54E
Accurately ripped (confidence 24) [254ECE75]
Copy OK

Track 3

Filename J:\Torrents\Keith Jarrett (2001) Inside Out\03 341 Free Fade.wav

Peak level 99.6 %
Track quality 100.0 %
Test CRC 4802CEE5
Copy CRC 4802CEE5
Accurately ripped (confidence 26) [2FD57A41]
Copy OK

Track 4

Filename J:\Torrents\Keith Jarrett (2001) Inside Out\04 Riot.wav

Peak level 97.3 %
Track quality 100.0 %
Test CRC 32B9FDD2
Copy CRC 32B9FDD2
Accurately ripped (confidence 25) [5BF172D2]
Copy OK

Track 5

Filename J:\Torrents\Keith Jarrett (2001) Inside Out\05 When I Fall In Love.wav

Peak level 53.7 %
Track quality 100.0 %
Test CRC 9B043FFA
Copy CRC 9B043FFA
Accurately ripped (confidence 22) [2D1CACD6]
Copy OK


All tracks accurately ripped

No errors occurred

End of status report


Thanks to the original ripper.

**Follow My Music Blog**