Subcategories

Kenneth Gilbert - Johann Sebastian Bach: The Well-Tempered Clavier, Book I (1984) 2CD [Reissue 2003] Re-Up

Posted By: Designol
Kenneth Gilbert - Johann Sebastian Bach: The Well-Tempered Clavier, Book I (1984) 2CD [Reissue 2003] Re-Up

Kenneth Gilbert - J.S. Bach: The Well-Tempered Clavier, Book I (1984) 2CD [Reissue 2003]
EAC | FLAC | Image (Cue&Log) ~ 748 Mb | Mp3 (CBR320) ~ 256 Mb | Scans included
Genre: Classical | Label: Archiv Produktion | # 474 221-2 | Time: 01:51:00

Although not quite at the level of profundity of his teacher Gustav Leonhardt's recording, Kenneth Gilbert's 1983 recording of Book 1 of Bach's The Well-Tempered Clavier does have a style and polish that Leonhardt's too often lacked. Thus, while Leonhardt goes further into some of the minor-key fugues to find intellectual and spiritual depths that Gilbert does not plumb, Gilbert's playing is so much more elegant and graceful than Leonhardt's that it is difficult to choose between them. For listeners who approach The Well-Tempered Clavier as a volume of virtuoso works whose success depends on the effortless refinement of the player, the Gilbert, with its superbly remastered sound, will be the one to get. For listeners who approach The Well-Tempered Clavier as a volume of prayers written as preludes and fugues, the Leonhardt will be preferable. Both are superb and both belong in any Bach collection.

Review by James Leonard, Allmusic.com

Kenneth Gilbert - Johann Sebastian Bach: The Well-Tempered Clavier, Book I (1984) 2CD [Reissue 2003] Re-Up



Kenneth Gilbert - Johann Sebastian Bach: The Well-Tempered Clavier, Book I (1984) 2CD [Reissue 2003] Re-Up



Tracklist:

CD1:

01. WTC, Book I - Prelude & Fugue #1 In C, BWV 846 (04:12)
02. WTC, Book I - Prelude & Fugue #2 In C Minor, BWV 847 (03:30)
03. WTC, Book I - Prelude & Fugue #3 In C Sharp, BWV 848 (04:07)
04. WTC, Book I - Prelude & Fugue #4 In C Sharp Minor, 849 (06:20)
05. WTC, Book I - Prelude & Fugue #5 In D, BWV 850 (03:12)
06. WTC, Book I - Prelude & Fugue #6 In D Minor, BWV 851 (03:44)
07. WTC, Book I - Prelude & Fugue #7 In E Flat, BWV 852 (06:02)
08. WTC, Book I - Prelude & Fugue #8 In E Flat Minor, BWV 853 (08:03)
09. WTC, Book I - Prelude & Fugue #9 In E, BWV 854 (02:54)
10. WTC, Book I - Prelude & Fugue #10 In E Minor, BWV 855 (04:09)
11. WTC, Book I - Prelude & Fugue #11 In F, BWV 856 (02:42)
12. WTC, Book I - Prelude & Fugue #12 In F Minor, BWV 857 (06:32)

CD2:

01. WTC, Book I - Prelude & Fugue #13 In F Sharp, BWV 858 (03:42)
02. WTC, Book I - Prelude & Fugue #14 In F Sharp Minor, BWV 859 (04:09)
03. WTC, Book I - Prelude & Fugue #15 In G, BWV 860 (04:05)
04. WTC, Book I - Prelude & Fugue #16 In G Minor, BWV 861 (03:51)
05. WTC, Book I - Prelude & Fugue #17 In A Flat, BWV 862 (04:00)
06. WTC, Book I - Prelude & Fugue #18 In G Sharp Minor, BWV 863 (04:17)
07. WTC, Book I - Prelude & Fugue #19 In A, BWV 864 (03:56)
08. WTC, Book I - Prelude & Fugue #20 In A Minor, BWV 865 (05:54)
09. WTC, Book I - Prelude & Fugue #21 In B Flat, BWV 866 (03:07)
10. WTC, Book I - Prelude & Fugue #22 In B Flat Minor, BWV 867 (05:04)
11. WTC, Book I - Prelude & Fugue #23 In B, BWV 868 (03:32)
12. WTC, Book I - Prelude & Fugue #24 In B Minor, BWV 869 (09:43)


Exact Audio Copy V1.0 beta 3 from 29. August 2011

Отчёт EAC об извлечении, выполненном 6. мая 2015, 12:22

J. S. Bach / The Well-Tempered Clavier - CD1

Дисковод: Optiarc DVD RW AD-7260S Adapter: 0 ID: 1

Режим чтения : Достоверность
Использование точного потока : Да
Отключение кэша аудио : Да
Использование указателей C2 : Нет

Коррекция смещения при чтении : 48
Способность читать области Lead-in и Lead-out : Нет
Заполнение пропущенных сэмплов тишиной : Да
Удаление блоков с тишиной в начале и конце : Нет
При вычислениях CRC использовались нулевые сэмплы : Да
Интерфейс : Встроенный Win32-интерфейс для Win NT/2000

Выходной формат : Пользовательский кодировщик
Выбранный битрейт : 896 kBit/s
Качество : Высокий
Добавление ID3-тега : Нет
Утилита сжатия : C:\Program Files\FLAC Frontend\tools\flac.exe
Дополнительные параметры : -V -8 -T "Date=%year%" -T "Genre=%genre%" %source%


TOC извлечённого CD

Трек | Старт | Длительность | Начальный сектор | Конечный сектор
––––––––––––––––––––––––––––––––––-
1 | 0:00.32 | 4:12.63 | 32 | 18994
2 | 4:13.20 | 3:30.30 | 18995 | 34774
3 | 7:43.50 | 4:07.70 | 34775 | 53369
4 | 11:51.45 | 6:20.10 | 53370 | 81879
5 | 18:11.55 | 3:12.45 | 81880 | 96324
6 | 21:24.25 | 3:44.67 | 96325 | 113191
7 | 25:09.17 | 6:02.68 | 113192 | 140409
8 | 31:12.10 | 8:03.50 | 140410 | 176684
9 | 39:15.60 | 2:54.62 | 176685 | 189796
10 | 42:10.47 | 4:09.50 | 189797 | 208521
11 | 46:20.22 | 2:42.10 | 208522 | 220681
12 | 49:02.32 | 6:32.05 | 220682 | 250086


Характеристики диапазона извлечения и сообщения об ошибках

Выбранный диапазон

Имя файла D:\EAC\Мои раздачи\Bach - WTC - Gilbert\Bach - WTC I - Gilbert\CD1\J. S. Bach - The Well-Tempered Clavier - CD1.wav

Пиковый уровень 90.6 %
Скорость извлечения 4.0 X
Качество диапазона 100.0 %
CRC теста 2DF79E63
CRC копии 2DF79E63
Копирование… OK

Ошибок не произошло


AccurateRip: сводка

Трек 1 : извлечено точно (доверие 3) [EA2B70A7] (AR v2)
Трек 2 : извлечено точно (доверие 3) [94332E47] (AR v2)
Трек 3 : извлечено точно (доверие 3) [3A6A1B8A] (AR v2)
Трек 4 : извлечено точно (доверие 3) [F0E4CE12] (AR v2)
Трек 5 : извлечено точно (доверие 3) [889683D7] (AR v2)
Трек 6 : извлечено точно (доверие 3) [4924DA5E] (AR v2)
Трек 7 : извлечено точно (доверие 3) [F07FE1CF] (AR v2)
Трек 8 : извлечено точно (доверие 3) [93F260A4] (AR v2)
Трек 9 : извлечено точно (доверие 3) [96E7D330] (AR v2)
Трек 10 : извлечено точно (доверие 3) [32C525C1] (AR v2)
Трек 11 : извлечено точно (доверие 3) [1A82B553] (AR v2)
Трек 12 : извлечено точно (доверие 3) [0B51EC5F] (AR v2)

Все треки извлечены точно

Конец отчёта

==== Контрольная сумма отчёта DFF1D50A375B825761211CFB5D13146FCF8AF4926CEA70F01F933DECAA7C6851 ====

foobar2000 1.2 / Dynamic Range Meter 1.1.1
log date: 2015-06-13 16:29:06

––––––––––––––––––––––––––––––––––––––––
Analyzed: J. S. Bach / The Well-Tempered Clavier - CD1
––––––––––––––––––––––––––––––––––––––––

DR Peak RMS Duration Track
––––––––––––––––––––––––––––––––––––––––
DR12 -2.25 dB -18.22 dB 4:13 01-WTC, Book I - Prelude & Fugue #1 In C, BWV 846
DR12 -1.77 dB -16.28 dB 3:30 02-WTC, Book I - Prelude & Fugue #2 In C Minor, BWV 847
DR12 -3.26 dB -16.73 dB 4:08 03-WTC, Book I - Prelude & Fugue #3 In C Sharp, BWV 848
DR13 -2.75 dB -17.93 dB 6:20 04-WTC, Book I - Prelude & Fugue #4 In C Sharp Minor, 849
DR12 -0.85 dB -15.57 dB 3:13 05-WTC, Book I - Prelude & Fugue #5 In D, BWV 850
DR12 -2.36 dB -16.80 dB 3:45 06-WTC, Book I - Prelude & Fugue #6 In D Minor, BWV 851
DR12 -3.74 dB -18.06 dB 6:03 07-WTC, Book I - Prelude & Fugue #7 In E Flat, BWV 852
DR14 -2.51 dB -18.58 dB 8:04 08-WTC, Book I - Prelude & Fugue #8 In E Flat Minor, BWV 853
DR12 -3.55 dB -18.74 dB 2:55 09-WTC, Book I - Prelude & Fugue #9 In E, BWV 854
DR12 -1.82 dB -16.70 dB 4:10 10-WTC, Book I - Prelude & Fugue #10 In E Minor, BWV 855
DR11 -4.12 dB -17.68 dB 2:42 11-WTC, Book I - Prelude & Fugue #11 In F, BWV 856
DR13 -3.35 dB -18.60 dB 6:32 12-WTC, Book I - Prelude & Fugue #12 In F Minor, BWV 857
––––––––––––––––––––––––––––––––––––––––

Number of tracks: 12
Official DR value: DR12

Samplerate: 44100 Hz
Channels: 2
Bits per sample: 16
Bitrate: 952 kbps
Codec: FLAC
================================================================================


Exact Audio Copy V1.0 beta 3 from 29. August 2011

Отчёт EAC об извлечении, выполненном 6. мая 2015, 13:59

J. S. Bach / The Well-Tempered Clavier - CD2

Дисковод: Optiarc DVD RW AD-7260S Adapter: 0 ID: 1

Режим чтения : Достоверность
Использование точного потока : Да
Отключение кэша аудио : Да
Использование указателей C2 : Нет

Коррекция смещения при чтении : 48
Способность читать области Lead-in и Lead-out : Нет
Заполнение пропущенных сэмплов тишиной : Да
Удаление блоков с тишиной в начале и конце : Нет
При вычислениях CRC использовались нулевые сэмплы : Да
Интерфейс : Встроенный Win32-интерфейс для Win NT/2000

Выходной формат : Пользовательский кодировщик
Выбранный битрейт : 896 kBit/s
Качество : Высокий
Добавление ID3-тега : Нет
Утилита сжатия : C:\Program Files\FLAC Frontend\tools\flac.exe
Дополнительные параметры : -V -8 -T "Date=%year%" -T "Genre=%genre%" %source%


TOC извлечённого CD

Трек | Старт | Длительность | Начальный сектор | Конечный сектор
––––––––––––––––––––––––––––––––––-
1 | 0:00.33 | 3:42.50 | 33 | 16732
2 | 3:43.08 | 4:09.57 | 16733 | 35464
3 | 7:52.65 | 4:05.73 | 35465 | 53912
4 | 11:58.63 | 3:51.15 | 53913 | 71252
5 | 15:50.03 | 4:00.17 | 71253 | 89269
6 | 19:50.20 | 4:17.50 | 89270 | 108594
7 | 24:07.70 | 3:56.48 | 108595 | 126342
8 | 28:04.43 | 5:54.27 | 126343 | 152919
9 | 33:58.70 | 3:07.25 | 152920 | 166969
10 | 37:06.20 | 5:04.60 | 166970 | 189829
11 | 42:11.05 | 3:32.63 | 189830 | 205792
12 | 45:43.68 | 9:43.07 | 205793 | 249524


Характеристики диапазона извлечения и сообщения об ошибках

Выбранный диапазон

Имя файла D:\EAC\Мои раздачи\Bach - WTC - Gilbert\Bach - WTC I - Gilbert\CD2\J. S. Bach - The Well-Tempered Clavier - CD2.wav

Пиковый уровень 92.6 %
Скорость извлечения 4.0 X
Качество диапазона 99.9 %
CRC теста 2233C454
CRC копии 2233C454
Копирование… OK

Ошибок не произошло


AccurateRip: сводка

Трек 1 : извлечено точно (доверие 2) [7DC56FC4] (AR v2)
Трек 2 : извлечено точно (доверие 2) [C50997B5] (AR v2)
Трек 3 : извлечено точно (доверие 2) [D99FAB31] (AR v2)
Трек 4 : извлечено точно (доверие 2) [4025E08D] (AR v2)
Трек 5 : извлечено точно (доверие 2) [6613D0AB] (AR v2)
Трек 6 : извлечено точно (доверие 2) [5FE7C9D1] (AR v2)
Трек 7 : извлечено точно (доверие 2) [A67F65D3] (AR v2)
Трек 8 : извлечено точно (доверие 2) [DE532281] (AR v2)
Трек 9 : извлечено точно (доверие 2) [DB867E54] (AR v2)
Трек 10 : извлечено точно (доверие 2) [D3A4EEF3] (AR v2)
Трек 11 : извлечено точно (доверие 2) [4C9B17F4] (AR v2)
Трек 12 : извлечено точно (доверие 2) [A70C58AC] (AR v2)

Все треки извлечены точно

Конец отчёта

==== Контрольная сумма отчёта 2FC80233D3FF2444BBCEEB8D1D539D8DCBB4B0AB2BE5BB0EF72E36326ABA3314 ====

foobar2000 1.2 / Dynamic Range Meter 1.1.1
log date: 2015-06-13 16:29:21

––––––––––––––––––––––––––––––––––––––––
Analyzed: J. S. Bach / The Well-Tempered Clavier - CD2
––––––––––––––––––––––––––––––––––––––––

DR Peak RMS Duration Track
––––––––––––––––––––––––––––––––––––––––
DR12 -7.17 dB -22.21 dB 3:43 01-WTC, Book I - Prelude & Fugue #13 In F Sharp, BWV 858
DR13 -3.93 dB -19.30 dB 4:10 02-WTC, Book I - Prelude & Fugue #14 In F Sharp Minor, BWV 859
DR12 -4.00 dB -18.67 dB 4:06 03-WTC, Book I - Prelude & Fugue #15 In G, BWV 860
DR13 -4.69 dB -20.85 dB 3:51 04-WTC, Book I - Prelude & Fugue #16 In G Minor, BWV 861
DR13 -2.47 dB -18.11 dB 4:00 05-WTC, Book I - Prelude & Fugue #17 In A Flat, BWV 862
DR13 -4.59 dB -20.26 dB 4:18 06-WTC, Book I - Prelude & Fugue #18 In G Sharp Minor, BWV 863
DR12 -7.57 dB -21.60 dB 3:57 07-WTC, Book I - Prelude & Fugue #19 In A, BWV 864
DR13 -3.71 dB -19.11 dB 5:54 08-WTC, Book I - Prelude & Fugue #20 In A Minor, BWV 865
DR15 -0.66 dB -18.06 dB 3:07 09-WTC, Book I - Prelude & Fugue #21 In B Flat, BWV 866
DR14 -3.00 dB -19.25 dB 5:05 10-WTC, Book I - Prelude & Fugue #22 In B Flat Minor, BWV 867
DR13 -5.56 dB -20.89 dB 3:33 11-WTC, Book I - Prelude & Fugue #23 In B, BWV 868
DR13 -5.81 dB -21.20 dB 9:43 12-WTC, Book I - Prelude & Fugue #24 In B Minor, BWV 869
––––––––––––––––––––––––––––––––––––––––

Number of tracks: 12
Official DR value: DR13

Samplerate: 44100 Hz
Channels: 2
Bits per sample: 16
Bitrate: 925 kbps
Codec: FLAC
================================================================================

Kenneth Gilbert - Johann Sebastian Bach: The Well-Tempered Clavier, Book I (1984) 2CD [Reissue 2003] Re-Up