Subcategories
Tags
Language
Tags

Kenny Rankin - Professional Dreamer (1995)

Posted By: Designol
Kenny Rankin - Professional Dreamer (1995)

Kenny Rankin - Professional Dreamer (1995)
EAC | FLAC | Image (Cue&Log) ~ 299 Mb | Mp3 (CBR320) ~ 153 Mb | Scans included
Vocal Jazz, Vocal Pop, Standarts | Label: Private Music | # 01005-82124-2 | 00:52:03

Kenny Rankin sings like Chet Baker would have if Baker had had a voice. His tone is high (Rankin's speaking voice is actually fairly low) and he has a subtle, cool style. It is a bit of a surprise, but Rankin (whose previous output has been in pop music) is actually a fine jazz singer. He always sticks to the lyrics when performing veteran standards (there is no scatting), but changes many of the notes, even during the melody statements, and he is definitely improvising. Rankin's concept is kind of strange ("At Last" and "The Very Thought of You" are radically changed) but successful and he has a strong and likable voice. An all-star acoustic trio (consisting of pianist Mike Wofford, bassist Brian Bromberg, and drummer Roy McCurdy) backs the singer on most of the tracks, Tom Scott (on tenor and alto) and trombonist Bill Watrous add melodic bop solos to three songs apiece, "It Had to Be You" is taken as a romping duet with pianist Alan Broadbent, and the remarkable singer Sue Raney interacts with Rankin on "I've Got a Crush on You." This surprising CD is highly recommended.

Review by Scott Yanow, Allmusic.com

Kenny Rankin at Allmusic
Kenny Rankin at Wiki

Tracklist:

01. You'd Be So Nice To Come Home To (3:32)
02. The Very Thought Of You (3:39)
03. But Not For Me (3:09)
04. I Fall In Love Too Easily (3:51)
05. More Than You Know (4:19)
06. It Had To Be You (2:20)
07. At Last (6:15)
08. Love Is Here To Stay (2:31)
09. I've Got A Crush On You (3:49)
10. My One And Only Love (4:17)
11. Blame It On My Youth (5:01)
12. How Can I Forget (Song For Margo) (4:53)
13. That's All (4:27)


Exact Audio Copy V1.1 from 23. June 2015

Отчёт EAC об извлечении, выполненном 5. мая 2017, 21:19

Kenny Rankin / Professional Dreamer

Дисковод: ASUS DRW-24B3ST Adapter: 0 ID: 0

Режим чтения : Достоверность
Использование точного потока : Да
Отключение кэша аудио : Да
Использование указателей C2 : Нет

Коррекция смещения при чтении : 6
Способность читать области Lead-in и Lead-out : Нет
Заполнение пропущенных сэмплов тишиной : Да
Удаление блоков с тишиной в начале и конце : Нет
При вычислениях CRC использовались нулевые сэмплы : Да
Интерфейс : Установленный внешний ASPI-интерфейс

Выходной формат : Пользовательский кодировщик
Выбранный битрейт : 1024 kBit/s
Качество : Высокий
Добавление ID3-тега : Нет
Утилита сжатия : C:\Program Files (x86)\Exact Audio Copy\Flac\flac.exe
Дополнительные параметры : -V -8 -T "Date=%year%" -T "Genre=%genre%" %source%


TOC извлечённого CD

Трек | Старт | Длительность | Начальный сектор | Конечный сектор
––––––––––––––––––––––––––––––––––-
1 | 0:00.00 | 3:32.05 | 0 | 15904
2 | 3:32.05 | 3:38.60 | 15905 | 32314
3 | 7:10.65 | 3:09.30 | 32315 | 46519
4 | 10:20.20 | 3:50.52 | 46520 | 63821
5 | 14:10.72 | 4:19.13 | 63822 | 83259
6 | 18:30.10 | 2:19.40 | 83260 | 93724
7 | 20:49.50 | 6:15.25 | 93725 | 121874
8 | 27:05.00 | 2:30.60 | 121875 | 133184
9 | 29:35.60 | 3:49.17 | 133185 | 150376
10 | 33:25.02 | 4:17.15 | 150377 | 169666
11 | 37:42.17 | 5:00.50 | 169667 | 192216
12 | 42:42.67 | 4:53.10 | 192217 | 214201
13 | 47:36.02 | 4:27.15 | 214202 | 234241


Характеристики диапазона извлечения и сообщения об ошибках

Выбранный диапазон

Имя файла C:\Torrents - my\Kenny Rankin - 1995 - Professional Dreamer\Kenny Rankin - Professional Dreamer.wav

Пиковый уровень 97.4 %
Скорость извлечения 8.3 X
Качество диапазона 100.0 %
CRC теста 5F076F59
CRC копии 5F076F59
Копирование… OK

Ошибок не произошло


AccurateRip: сводка

Трек 1 точность не определена (достоверность 14) [4FF1E706], AccurateRip вернул [AFBAA9EF] (AR v2)
Трек 2 точность не определена (достоверность 14) [4FBEE97F], AccurateRip вернул [808800D9] (AR v2)
Трек 3 точность не определена (достоверность 14) [66FE043D], AccurateRip вернул [4A0CB8EE] (AR v2)
Трек 4 точность не определена (достоверность 14) [03919056], AccurateRip вернул [334213DF] (AR v2)
Трек 5 точность не определена (достоверность 14) [761D1C39], AccurateRip вернул [CDAADAD0] (AR v2)
Трек 6 точность не определена (достоверность 14) [38020E03], AccurateRip вернул [632C1AE1] (AR v2)
Трек 7 точность не определена (достоверность 14) [803E3E8E], AccurateRip вернул [26D00495] (AR v2)
Трек 8 точность не определена (достоверность 14) [FFC8F755], AccurateRip вернул [C874D678] (AR v2)
Трек 9 точность не определена (достоверность 14) [A8BA305B], AccurateRip вернул [F6169F18] (AR v2)
Трек 10 точность не определена (достоверность 14) [6ECF2244], AccurateRip вернул [C09D525B] (AR v2)
Трек 11 точность не определена (достоверность 13) [AB2114E6], AccurateRip вернул [5A71C34C] (AR v2)
Трек 12 точность не определена (достоверность 14) [D1C18451], AccurateRip вернул [FE324877] (AR v2)
Трек 13 точность не определена (достоверность 14) [C3F4A29C], AccurateRip вернул [38AAEE4A] (AR v2)

Ни один трек не прошёл проверки на точность
В вашей базе может быть иной вариант штамповки диска

Конец отчёта

==== Контрольная сумма отчёта 4918BF72F8AE8A8A1554204E0BA76BC8D9C5B42E23D2C9C2CD3637445C4880E1 ====

foobar2000 1.2 / Dynamic Range Meter 1.1.1
log date: 2017-05-06 02:01:00

––––––––––––––––––––––––––––––––––––––––
Analyzed: Kenny Rankin / Professional Dreamer
––––––––––––––––––––––––––––––––––––––––

DR Peak RMS Duration Track
––––––––––––––––––––––––––––––––––––––––
DR11 -0.22 dB -14.66 dB 3:32 01-You'd Be So Nice To Come Home To
DR12 -0.40 dB -15.77 dB 3:39 02-The Very Thought Of You
DR13 -0.65 dB -17.10 dB 3:09 03-But Not For Me
DR13 -0.80 dB -17.37 dB 3:51 04-I Fall In Love Too Easily
DR12 -0.57 dB -16.06 dB 4:19 05-More Than You Know
DR13 -0.53 dB -16.29 dB 2:20 06-It Had To Be You
DR12 -0.35 dB -15.29 dB 6:15 07-At Last
DR12 -0.48 dB -16.11 dB 2:31 08-Love Is Here To Stay
DR10 -0.53 dB -14.52 dB 3:49 09-I've Got A Crush On You
DR12 -0.53 dB -15.81 dB 4:17 10-My One And Only Love
DR12 -0.67 dB -15.67 dB 5:01 11-Blame It On My Youth
DR13 -0.95 dB -16.99 dB 4:53 12-How Can I Forget (Song For Margo)
DR11 -0.22 dB -15.02 dB 4:27 13-That's All
––––––––––––––––––––––––––––––––––––––––

Number of tracks: 13
Official DR value: DR12

Samplerate: 44100 Hz
Channels: 2
Bits per sample: 16
Bitrate: 710 kbps
Codec: FLAC
================================================================================

Kenny Rankin - Professional Dreamer (1995)

Kenny Rankin - Professional Dreamer (1995)

All thanks to original releaser - Копысов

More interesting music in My Blog