Subcategories

Kenny Drew Trio + 1 - A Child Is Born [Recorded 1978] (2013)

Posted By: gribovar
Kenny Drew Trio + 1 - A Child Is Born [Recorded 1978] (2013)

Kenny Drew Trio + 1 - A Child Is Born [Recorded 1978] (2013)
EAC Rip | FLAC (image+.cue+log) - 275 MB | MP3 CBR 320 kbps (LAME 3.93) - 105 MB | Covers - 22 MB
Genre: Jazz | RAR 3% Rec. | Label: Pony Canyon (PCCY-30214)

A collection of previously unreleased materials by the Kenny Drew Trio, originally recorded for Japanese labels Baystate and Alpha beween 1978 and 1992, now released to commemmorate the 20th anniversary of his passing. A rich trove of superb piano trio performances!
American pianist Kenny Drew (1928-1993) moved to Copenhagen, Denmark, in 1964. Although he may have somewhat faded from the radar of American jazz fans, he had a fantastic career in Denmark and was beloved by European and Japanese jazz fans. In the late 1970s and 1980s, Drew's popularity in Japan grew to incredible heights when he began recording for Japanese labels such as Baystate and Alpha under a partnership with Japanese producer Makoto Kimata.
To commemmorate the 20th anniversary of Drew's passing, a very special series was launched in Japan in 2013, with a release of previously unpublished materials recorded for the two labels between 1978 and 1992. They are alternate takes and takes that did not make onto the original albums released in this period. Danish super-bassist Niels-Henning Orsted Pedersen held the bass chair throughout, and the drummer is either Ed Thigpen, a fellow American expat who had settled in Copenhagen, or Alvin Queen.
It is quite amazing to hear the consistently high quality of these "outtakes" and to realize that there is enough material to fill CDs in this series. Actually, many these "outtakes" tend to be more exciting than those takes that made the original albums. They may have been "cut" because they were slightly rough around the edges, but perhaps they were played with more freedom, abandon, and adventurous spirit.
Tracklist:
01. Funk Dumplin's
02. Serenity
03. Brushes and Brass
04. Beautiful
05. Snavset Blues
06. Bayside Cookout
07. Somebody Done Stole My Blues
08. A Child Is Born
09. Silly Samba

Total time: 44:46

Exact Audio Copy V1.1 from 23. June 2015

EAC extraction logfile from 15. July 2015, 23:36

Kenny Drew Trio / A Child Is Born

Used drive : ASUS DRW-24B1LT Adapter: 1 ID: 1

Read mode : Secure
Utilize accurate stream : Yes
Defeat audio cache : Yes
Make use of C2 pointers : No

Read offset correction : 6
Overread into Lead-In and Lead-Out : No
Fill up missing offset samples with silence : Yes
Delete leading and trailing silent blocks : No
Null samples used in CRC calculations : Yes
Used interface : Native Win32 interface for Win NT & 2000

Used output format : User Defined Encoder
Selected bitrate : 768 kBit/s
Quality : High
Add ID3 tag : No
Command line compressor : C:\Program Files\Exact Audio Copy\Flac\flac.exe
Additional command line options : -8 -V -T "ARTIST=%artist%" -T "TITLE=%title%" -T "ALBUM=%albumtitle%" -T "DATE=%year%" -T "TRACKNUMBER=%tracknr%" -T "TOTALTRACKS=%numtracks%" -T "GENRE=%genre%" -T "ALBUMARTIST=%albumartist%" -T "ALBUM ARTIST=%albumartist%" -T "COMMENT=EAC Secure Mode, Test & Copy, AccurateRip, FLAC -8" %source%


TOC of the extracted CD

Track | Start | Length | Start sector | End sector
––––––––––––––––––––––––––––-
1 | 0:00.00 | 5:09.27 | 0 | 23201
2 | 5:09.27 | 4:20.20 | 23202 | 42721
3 | 9:29.47 | 3:13.08 | 42722 | 57204
4 | 12:42.55 | 5:18.02 | 57205 | 81056
5 | 18:00.57 | 5:48.55 | 81057 | 107211
6 | 23:49.37 | 6:29.20 | 107212 | 136406
7 | 30:18.57 | 4:11.58 | 136407 | 155289
8 | 34:30.40 | 5:15.47 | 155290 | 178961
9 | 39:46.12 | 5:00.15 | 178962 | 201476


Range status and errors

Selected range

Filename F:\audio\Kenny Drew Trio - A Child Is Born.wav

Peak level 97.7 %
Extraction speed 2.9 X
Range quality 100.0 %
Test CRC C38BE0BE
Copy CRC C38BE0BE
Copy OK

No errors occurred


AccurateRip summary

Track 1 accurately ripped (confidence 1) [00D4DD85] (AR v2)
Track 2 accurately ripped (confidence 1) [07B17CDA] (AR v2)
Track 3 accurately ripped (confidence 1) [3D70FB4A] (AR v2)
Track 4 accurately ripped (confidence 1) [ED53E4DF] (AR v2)
Track 5 accurately ripped (confidence 1) [695FA16E] (AR v2)
Track 6 accurately ripped (confidence 1) [C7007C4B] (AR v2)
Track 7 accurately ripped (confidence 1) [81278CF7] (AR v2)
Track 8 accurately ripped (confidence 1) [B748EEBC] (AR v2)
Track 9 accurately ripped (confidence 1) [A58AC802] (AR v2)

All tracks accurately ripped

End of status report

–– CUETools DB Plugin V2.1.6

[CTDB TOCID: jh5Vey4pBxxmcDi_SjfciCm3N_Q-] disk not present in database
Submit result: jh5Vey4pBxxmcDi_SjfciCm3N_Q- has been uploaded


==== Log checksum 3AC0C15F17D5A06BB40C27A42594F09DE08804250E3D9DAF095DA9407DE8B9B9 ====

[CUETools log; Date: 25.02.2018 23:52:52; Version: 2.1.4]
[CTDB TOCID: jh5Vey4pBxxmcDi_SjfciCm3N_Q-] found.
Track | CTDB Status
1 | (3/3) Accurately ripped
2 | (3/3) Accurately ripped
3 | (3/3) Accurately ripped
4 | (3/3) Accurately ripped
5 | (3/3) Accurately ripped
6 | (3/3) Accurately ripped
7 | (3/3) Accurately ripped
8 | (3/3) Accurately ripped
9 | (3/3) Accurately ripped
[AccurateRip ID: 000f01ee-006f0031-640a7e09] found.
Track [ CRC | V2 ] Status
01 [db1c47af|00d4dd85] (0+3/3) Accurately ripped
02 [cc054878|07b17cda] (0+3/3) Accurately ripped
03 [c52b912f|3d70fb4a] (0+3/3) Accurately ripped
04 [ef9fb37c|ed53e4df] (0+3/3) Accurately ripped
05 [3c91b20a|695fa16e] (0+3/3) Accurately ripped
06 [3bc04514|c7007c4b] (0+3/3) Accurately ripped
07 [ac4956fd|81278cf7] (0+3/3) Accurately ripped
08 [22f55586|b748eebc] (0+3/3) Accurately ripped
09 [6ac46d6c|a58ac802] (0+3/3) Accurately ripped

Track Peak [ CRC32 ] [W/O NULL] [ LOG ]
– 97,7 [C38BE0BE] [28F18181] CRC32
01 97,7 [1E930EB0] [915B632F]
02 84,6 [056601A9] [D14BF18D]
03 97,7 [145E6A7C] [0B961CF4]
04 85,4 [8B4F5292] [44D430FD]
05 97,7 [96A2381B] [AD5ED7B4]
06 97,7 [DE24A872] [1BC5FF78]
07 97,7 [9553CBD9] [878B1C4E]
08 97,6 [BEB06A8F] [3CB608D4]
09 97,7 [E3E1821D] [729865B9]

Thanks to fiks22

See also:
Kenny Drew Trio - Kenny's Music Still Live On [Recorded 1978-1992] [7 Albums] (2013)