Subcategories

Kenny Drew Trio - Live For Peace (1990) {Pony Canyon Japan}

Posted By: tiburon
Kenny Drew Trio - Live For Peace (1990) {Pony Canyon Japan}

Kenny Drew Trio - Live For Peace (1990) {Pony Canyon Japan}
EAC 1.1 | FLAC Image level 8 | Cue+Log | Full Scans 300dpi | 401MB + 5% Recovery
MP3 CBR 320 Kbps | 153MB + 5% Recovery
Genre: Jazz, Hard-Bop
Kenny Drew Trio - Live For Peace (1990) {Pony Canyon Japan}

This particular CD is an exception to these rules: This is a straight reissue of a live album, recorded in 1990 in Zagreb, Croatia. Also, Drew is accompanied by George Mraz on bass and Lewis Nash on drums. The fact that the rhythm section inspired Drew on stage is apparent from the burning-hot opening track "Autumn Leaves." This is a very exciting live album!
Track List
01. Autumn Leaves (Kosma) - 11:29
02. Stella by Starlight (Young) - 8:47
03. All Blues (Davis) - 13:29
04. Django (Lewis) - 12:17
05. In Your Own Sweet Way (Brubeck) - 11:42
06. Blues (Drew-Mraz-Nash) - 9:21

musicians
Kenny Drew - piano
George Mraz - bass
Lewis Nash - drums

Produced by Mladen Mazur


Exact Audio Copy V1.1 from 23. June 2015

EAC extraction logfile from 16. July 2015, 0:24

Kenny Drew Trio / Live for Peace

Used drive : ASUS DRW-24B1LT Adapter: 1 ID: 1

Read mode : Secure
Utilize accurate stream : Yes
Defeat audio cache : Yes
Make use of C2 pointers : No

Read offset correction : 6
Overread into Lead-In and Lead-Out : No
Fill up missing offset samples with silence : Yes
Delete leading and trailing silent blocks : No
Null samples used in CRC calculations : Yes
Used interface : Native Win32 interface for Win NT & 2000

Used output format : User Defined Encoder
Selected bitrate : 768 kBit/s
Quality : High
Add ID3 tag : No
Command line compressor : C:\Program Files\Exact Audio Copy\Flac\flac.exe
Additional command line options : -8 -V -T "ARTIST=%artist%" -T "TITLE=%title%" -T "ALBUM=%albumtitle%" -T "DATE=%year%" -T "TRACKNUMBER=%tracknr%" -T "TOTALTRACKS=%numtracks%" -T "GENRE=%genre%" -T "ALBUMARTIST=%albumartist%" -T "ALBUM ARTIST=%albumartist%" -T "COMMENT=EAC Secure Mode, Test & Copy, AccurateRip, FLAC -8" %source%


TOC of the extracted CD

Track | Start | Length | Start sector | End sector
––––––––––––––––––––––––––––-
1 | 0:00.00 | 11:28.54 | 0 | 51653
2 | 11:28.54 | 8:46.42 | 51654 | 91145
3 | 20:15.21 | 13:29.18 | 91146 | 151838
4 | 33:44.39 | 12:17.00 | 151839 | 207113
5 | 46:01.39 | 11:42.01 | 207114 | 259764
6 | 57:43.40 | 9:21.01 | 259765 | 301840


Range status and errors

Selected range

Filename F:\audio\Kenny Drew Trio - Live for Peace.wav

Peak level 99.3 %
Extraction speed 3.5 X
Range quality 100.0 %
Test CRC C63FB389
Copy CRC C63FB389
Copy OK

No errors occurred


AccurateRip summary

Track 1 accurately ripped (confidence 1) [2CF6B7DB] (AR v2)
Track 2 accurately ripped (confidence 1) [5E284C6B] (AR v2)
Track 3 accurately ripped (confidence 1) [BED92D44] (AR v2)
Track 4 accurately ripped (confidence 1) [BA36D476] (AR v2)
Track 5 accurately ripped (confidence 1) [37B84890] (AR v2)
Track 6 accurately ripped (confidence 1) [3729254E] (AR v2)

All tracks accurately ripped

End of status report

–– CUETools DB Plugin V2.1.6

[CTDB TOCID: 8Y1kWAVpxQAW9qdTZ1esm9d6gpA-] found
Submit result: 8Y1kWAVpxQAW9qdTZ1esm9d6gpA- has been confirmed
Track | CTDB Status
1 | (1/1) Accurately ripped
2 | (1/1) Accurately ripped
3 | (1/1) Accurately ripped
4 | (1/1) Accurately ripped
5 | (1/1) Accurately ripped
6 | (1/1) Accurately ripped


==== Log checksum BAEFF673423A24A10BD4F96511C42C5D05CAC78F2F077D63CAA2C4A953A644D3 ====


––––––––––––––––––––––––––––––––––––––––
Analyzed: Kenny Drew Trio / Live for Peace
––––––––––––––––––––––––––––––––––––––––

DR Peak RMS Duration Track
––––––––––––––––––––––––––––––––––––––––
DR10 -0.06 dB -13.45 dB 11:29 01-Autumn Leaves
DR14 -0.63 dB -19.50 dB 8:47 02-Stella by Starlight
DR11 -0.08 dB -14.16 dB 13:29 03-All Blues
DR10 -0.06 dB -14.68 dB 12:17 04-Django
DR10 -0.07 dB -13.51 dB 11:42 05-In Your Own Sweet Way
DR11 -0.06 dB -15.42 dB 9:21 06-Blues
––––––––––––––––––––––––––––––––––––––––

Number of tracks: 6
Official DR value: DR11

Samplerate: 44100 Hz
Channels: 2
Bits per sample: 16
Bitrate: 780 kbps
Codec: FLAC
================================================================================

Kenny Drew Trio - Live For Peace (1990) {Pony Canyon Japan}
Kenny Drew Trio - Live For Peace (1990) {Pony Canyon Japan}
Kenny Drew Trio - Live For Peace (1990) {Pony Canyon Japan}


Thanks to the original ripper