Tags
Language
Tags

Kenny Rogers - Vote For Love: 30 All-Time Love Songs [2CD] (1996)

Posted By: BlondStyle
Kenny Rogers - Vote For Love: 30 All-Time Love Songs [2CD] (1996)

Kenny Rogers - Vote For Love: 30 All-Time Love Songs [2CD] (1996)
Pop/Rock, Soft Rock, Country | EAC Rip | FLAC, Tracks+CUE+LOG+Scans (PNG) | 01:45:41 h. | 646,51 Mb
Label: Rock Records/Q&M Enterprises (Indonesia) | Cat.# RR CD-0040597 | Released: 1996

This collection demonstrates Kenny's ability to interpret other classic songs and stamp his own identity on them, but also includes his own songs. This 2CDs compilation was released for sale in Indonesia only.

Kenny Rogers - Vote For Love: 30 All-Time Love Songs [2CD] (1996)




Release of this 2CD-Set: 1996 [CDs Rock Records/Q&M Enterprises (Indonesia), Cat.# RR CD-0040597, UPC: no barcode]
℗© 1996 Q&M Enterprises
© Rock Records (Taiwan) Co., Ltd.
Manufactured and Distributed by P.T. Indo Shemar Sakti Jakarta Indonesia.
For sale in Indonesia only


Tracklist:

Disc 1:

01. Have I Told You Lately That I Love You (04:50)
02. As Time Goes By (02:52)
03. Endless Love (03:52)
04. Unforgettable (03:54)
05. I Only Have Eyes for You (04:18)
06. Evergreen (03:56)
07. Misty (03:21)
08. She Believes In Me (04:20)
09. Always (02:38)
10. When I Fall In Love (03:29)
11. Crazy (03:21)
12. When A Man Loves A Woman (03:47)
13. You Decorated My Life (03:47)
14. I Can't Help Falling In Love (03:23)
15. The Wind Beneath My Wings (03:38)

Disc 2:

01. It Had to Be You (02:43)
02. I Swear (03:51)
03. Stardust (03:46)
04. I Will Always Love You (03:01)
05. You Send Me (03:06)
06. Through the Years (03:30)
07. Unchained Melody (03:29)
08. Lady (03:50)
09. Always and Forever (04:47)
10. My Funny Valentine (04:08)
11. Somewhere My Love (02:47)
12. You Are So Beautiful (03:11)
13. You Light Up My Life (03:10)
14. Love Is a Many Splendored Thing (02:40)
15. Love Me Tender (03:05)

Exact Audio Copy V1.3 from 2. September 2016

EAC extraction logfile from 20. August 2018, 12:33

Kenny Rogers / 30 All-Time Love Songs CD1

Used drive : ASUS DRW-24D5MT Adapter: 1 ID: 0

Read mode : Secure
Utilize accurate stream : Yes
Defeat audio cache : Yes
Make use of C2 pointers : No

Read offset correction : 6
Overread into Lead-In and Lead-Out : No
Fill up missing offset samples with silence : Yes
Delete leading and trailing silent blocks : No
Null samples used in CRC calculations : Yes
Used interface : Native Win32 interface for Win NT & 2000
Gap handling : Appended to previous track

Used output format : User Defined Encoder
Selected bitrate : 1024 kBit/s
Quality : High
Add ID3 tag : No
Command line compressor : C:\Program Files (x86)\Exact Audio Copy\Flac\flac.exe
Additional command line options : -8 -e -p -V -T "ARTIST=%artist%" -T "TITLE=%title%" -T "ALBUM=%albumtitle%" -T "DATE=%year%" -T "TRACKNUMBER=%tracknr%" -T "TOTALTRACKS=%numtracks%" -T "GENRE=%genre%" -T "ALBUMARTIST=%albumartist%" -T "ALBUM ARTIST=%albumartist%" -T "PERFORMER=%albuminterpret%" -T "COMPOSER=%composer%" -T "DISCNUMBER=%cdnumber%" -T "TOTALDISCS=%totalcds%" -T "COMMENT=EAC Secure Mode, Test & Copy, AccurateRip, FLAC -8" %source%


TOC of the extracted CD

Track | Start | Length | Start sector | End sector
––––––––––––––––––––––––––––-
1 | 0:00.00 | 4:50.07 | 0 | 21756
2 | 4:50.07 | 2:52.05 | 21757 | 34661
3 | 7:42.12 | 3:51.73 | 34662 | 52059
4 | 11:34.10 | 3:24.35 | 52060 | 67394
5 | 14:58.45 | 4:18.05 | 67395 | 86749
6 | 19:16.50 | 3:36.12 | 86750 | 102961
7 | 22:52.62 | 3:21.08 | 102962 | 118044
8 | 26:13.70 | 4:20.25 | 118045 | 137569
9 | 30:34.20 | 2:38.15 | 137570 | 149434
10 | 33:12.35 | 3:28.42 | 149435 | 165076
11 | 36:41.02 | 3:20.73 | 165077 | 180149
12 | 40:02.00 | 3:46.62 | 180150 | 197161
13 | 43:48.62 | 3:47.03 | 197162 | 214189
14 | 47:35.65 | 3:22.60 | 214190 | 229399
15 | 50:58.50 | 3:38.17 | 229400 | 245766


Track 1

Filename E:\EAC Rips\Kenny Rogers - 30 All-Time Love Songs (1996) [FLAC-CD] {ID,PT. ISS,RR CD-0040597}\CD1\01 - Have I Told You Lately That I Love You.wav

Pre-gap length 0:00:02.00

Peak level 96.6 %
Extraction speed 4.6 X
Track quality 100.0 %
Test CRC 01DC9053
Copy CRC 01DC9053
Cannot be verified as accurate (confidence 2) [531DF102], AccurateRip returned [6EAEE78D] (AR v2)
Copy OK

Track 2

Filename E:\EAC Rips\Kenny Rogers - 30 All-Time Love Songs (1996) [FLAC-CD] {ID,PT. ISS,RR CD-0040597}\CD1\02 - As Time Goes By.wav

Pre-gap length 0:00:01.64

Peak level 96.9 %
Extraction speed 4.7 X
Track quality 100.0 %
Test CRC 978758DB
Copy CRC 978758DB
Cannot be verified as accurate (confidence 2) [724AB176], AccurateRip returned [6BA41530] (AR v2)
Copy OK

Track 3

Filename E:\EAC Rips\Kenny Rogers - 30 All-Time Love Songs (1996) [FLAC-CD] {ID,PT. ISS,RR CD-0040597}\CD1\03 - Endless Love.wav

Peak level 100.0 %
Extraction speed 5.3 X
Track quality 100.0 %
Test CRC BE98B7BB
Copy CRC BE98B7BB
Cannot be verified as accurate (confidence 2) [ED61FDDF], AccurateRip returned [C31EE8B0] (AR v2)
Copy OK

Track 4

Filename E:\EAC Rips\Kenny Rogers - 30 All-Time Love Songs (1996) [FLAC-CD] {ID,PT. ISS,RR CD-0040597}\CD1\04 - Unforgettable.wav

Pre-gap length 0:00:01.33

Peak level 97.5 %
Extraction speed 5.6 X
Track quality 100.0 %
Test CRC F0869DD8
Copy CRC F0869DD8
Cannot be verified as accurate (confidence 2) [A6971A6D], AccurateRip returned [12EC135C] (AR v2)
Copy OK

Track 5

Filename E:\EAC Rips\Kenny Rogers - 30 All-Time Love Songs (1996) [FLAC-CD] {ID,PT. ISS,RR CD-0040597}\CD1\05 - I Only Have Eyes for You.wav

Peak level 89.1 %
Extraction speed 6.1 X
Track quality 100.0 %
Test CRC 1CA9F48C
Copy CRC 1CA9F48C
Cannot be verified as accurate (confidence 2) [D816E555], AccurateRip returned [32850515] (AR v2)
Copy OK

Track 6

Filename E:\EAC Rips\Kenny Rogers - 30 All-Time Love Songs (1996) [FLAC-CD] {ID,PT. ISS,RR CD-0040597}\CD1\06 - Evergreen.wav

Peak level 100.0 %
Extraction speed 6.2 X
Track quality 100.0 %
Test CRC 613A910B
Copy CRC 613A910B
Cannot be verified as accurate (confidence 2) [3BECB9F1], AccurateRip returned [65E1EC46] (AR v2)
Copy OK

Track 7

Filename E:\EAC Rips\Kenny Rogers - 30 All-Time Love Songs (1996) [FLAC-CD] {ID,PT. ISS,RR CD-0040597}\CD1\07 - Misty.wav

Pre-gap length 0:00:01.20

Peak level 89.0 %
Extraction speed 6.4 X
Track quality 100.0 %
Test CRC 7D5EF7F7
Copy CRC 7D5EF7F7
Cannot be verified as accurate (confidence 2) [DBB27074], AccurateRip returned [B67B01B3] (AR v2)
Copy OK

Track 8

Filename E:\EAC Rips\Kenny Rogers - 30 All-Time Love Songs (1996) [FLAC-CD] {ID,PT. ISS,RR CD-0040597}\CD1\08 - She Believes in Me.wav

Peak level 90.1 %
Extraction speed 6.8 X
Track quality 100.0 %
Test CRC BF05710A
Copy CRC BF05710A
Cannot be verified as accurate (confidence 2) [C2AF469E], AccurateRip returned [EE071201] (AR v2)
Copy OK

Track 9

Filename E:\EAC Rips\Kenny Rogers - 30 All-Time Love Songs (1996) [FLAC-CD] {ID,PT. ISS,RR CD-0040597}\CD1\09 - Always.wav

Peak level 97.9 %
Extraction speed 6.7 X
Track quality 100.0 %
Test CRC BCC5ED95
Copy CRC BCC5ED95
Cannot be verified as accurate (confidence 2) [33FC2DFC], AccurateRip returned [9DA8ADF8] (AR v2)
Copy OK

Track 10

Filename E:\EAC Rips\Kenny Rogers - 30 All-Time Love Songs (1996) [FLAC-CD] {ID,PT. ISS,RR CD-0040597}\CD1\10 - When I Fall in Love.wav

Peak level 98.7 %
Extraction speed 7.1 X
Track quality 100.0 %
Test CRC C4FB2B3E
Copy CRC C4FB2B3E
Cannot be verified as accurate (confidence 2) [4A315840], AccurateRip returned [F1989421] (AR v2)
Copy OK

Track 11

Filename E:\EAC Rips\Kenny Rogers - 30 All-Time Love Songs (1996) [FLAC-CD] {ID,PT. ISS,RR CD-0040597}\CD1\11 - Crazy.wav

Pre-gap length 0:00:01.39

Peak level 95.6 %
Extraction speed 7.3 X
Track quality 100.0 %
Test CRC A54FF320
Copy CRC A54FF320
Cannot be verified as accurate (confidence 2) [93C297D5], AccurateRip returned [2B5CCF3B] (AR v2)
Copy OK

Track 12

Filename E:\EAC Rips\Kenny Rogers - 30 All-Time Love Songs (1996) [FLAC-CD] {ID,PT. ISS,RR CD-0040597}\CD1\12 - When a Man Loves a Woman.wav

Pre-gap length 0:00:03.53

Peak level 85.1 %
Extraction speed 7.7 X
Track quality 100.0 %
Test CRC 285B702D
Copy CRC 285B702D
Cannot be verified as accurate (confidence 2) [FB1ECB86], AccurateRip returned [F53211F3] (AR v2)
Copy OK

Track 13

Filename E:\EAC Rips\Kenny Rogers - 30 All-Time Love Songs (1996) [FLAC-CD] {ID,PT. ISS,RR CD-0040597}\CD1\13 - You Decorated My Life.wav

Peak level 90.1 %
Extraction speed 6.5 X
Track quality 99.9 %
Test CRC 5CEB4928
Copy CRC 5CEB4928
Cannot be verified as accurate (confidence 2) [96C987FF], AccurateRip returned [2C40BB71] (AR v2)
Copy OK

Track 14

Filename E:\EAC Rips\Kenny Rogers - 30 All-Time Love Songs (1996) [FLAC-CD] {ID,PT. ISS,RR CD-0040597}\CD1\14 - I Can't Help Falling in Love.wav

Pre-gap length 0:00:01.02

Peak level 100.0 %
Extraction speed 8.0 X
Track quality 100.0 %
Test CRC 0B89DFCE
Copy CRC 0B89DFCE
Cannot be verified as accurate (confidence 2) [D54429C8], AccurateRip returned [82D157E3] (AR v2)
Copy OK

Track 15

Filename E:\EAC Rips\Kenny Rogers - 30 All-Time Love Songs (1996) [FLAC-CD] {ID,PT. ISS,RR CD-0040597}\CD1\15 - The Wind Beneath My Wings.wav

Pre-gap length 0:00:01.12

Peak level 97.4 %
Extraction speed 8.3 X
Track quality 100.0 %
Test CRC 054EFD24
Copy CRC 054EFD24
Cannot be verified as accurate (confidence 2) [578F549C], AccurateRip returned [417AAA27] (AR v2)
Copy OK


No tracks could be verified as accurate
You may have a different pressing from the one(s) in the database

No errors occurred

End of status report

–– CUETools DB Plugin V2.1.6

[CTDB TOCID: NtCboqYi8u_C7jp6eDmU5.2FWnM-] found
Submit result: already submitted
Track | CTDB Status
1 | (14/19) Accurately ripped
2 | (15/19) Accurately ripped
3 | (15/19) Accurately ripped
4 | (15/19) Accurately ripped
5 | (15/19) Accurately ripped
6 | (15/19) Accurately ripped
7 | (15/19) Accurately ripped
8 | (15/19) Accurately ripped
9 | (15/19) Accurately ripped
10 | (15/19) Accurately ripped
11 | (15/19) Accurately ripped
12 | (15/19) Accurately ripped
13 | (15/19) Accurately ripped
14 | (15/19) Accurately ripped
15 | (15/19) Accurately ripped


==== Log checksum EF9C230E5F231FFB932BF3C87153B8091B00DF3C6DDEB74990322E09364E22D8 ====

Exact Audio Copy V1.3 from 2. September 2016

EAC extraction logfile from 20. August 2018, 15:06

Kenny Rogers / 30 All-Time Love Songs CD2

Used drive : ASUS DRW-24D5MT Adapter: 1 ID: 0

Read mode : Secure
Utilize accurate stream : Yes
Defeat audio cache : Yes
Make use of C2 pointers : No

Read offset correction : 6
Overread into Lead-In and Lead-Out : No
Fill up missing offset samples with silence : Yes
Delete leading and trailing silent blocks : No
Null samples used in CRC calculations : Yes
Used interface : Native Win32 interface for Win NT & 2000
Gap handling : Appended to previous track

Used output format : User Defined Encoder
Selected bitrate : 1024 kBit/s
Quality : High
Add ID3 tag : No
Command line compressor : C:\Program Files (x86)\Exact Audio Copy\Flac\flac.exe
Additional command line options : -8 -e -p -V -T "ARTIST=%artist%" -T "TITLE=%title%" -T "ALBUM=%albumtitle%" -T "DATE=%year%" -T "TRACKNUMBER=%tracknr%" -T "TOTALTRACKS=%numtracks%" -T "GENRE=%genre%" -T "ALBUMARTIST=%albumartist%" -T "ALBUM ARTIST=%albumartist%" -T "PERFORMER=%albuminterpret%" -T "COMPOSER=%composer%" -T "DISCNUMBER=%cdnumber%" -T "TOTALDISCS=%totalcds%" -T "COMMENT=EAC Secure Mode, Test & Copy, AccurateRip, FLAC -8" %source%


TOC of the extracted CD

Track | Start | Length | Start sector | End sector
––––––––––––––––––––––––––––-
1 | 0:00.00 | 2:42.52 | 0 | 12201
2 | 2:42.52 | 3:51.20 | 12202 | 29546
3 | 6:33.72 | 3:45.73 | 29547 | 46494
4 | 10:19.70 | 3:01.35 | 46495 | 60104
5 | 13:21.30 | 3:05.62 | 60105 | 74041
6 | 16:27.17 | 3:29.73 | 74042 | 89789
7 | 19:57.15 | 3:29.25 | 89790 | 105489
8 | 23:26.40 | 3:50.17 | 105490 | 122756
9 | 27:16.57 | 4:46.50 | 122757 | 144256
10 | 32:03.32 | 4:08.18 | 144257 | 162874
11 | 36:11.50 | 2:46.40 | 162875 | 175364
12 | 38:58.15 | 3:11.15 | 175365 | 189704
13 | 42:09.30 | 3:10.27 | 189705 | 203981
14 | 45:19.57 | 2:39.55 | 203982 | 215961
15 | 47:59.37 | 3:04.65 | 215962 | 229826


Track 1

Filename E:\EAC Rips\Kenny Rogers - 30 All-Time Love Songs (1996) [FLAC-CD] {ID,PT. ISS,RR CD-0040597}\CD2\01 - It Had to Be You.wav

Pre-gap length 0:00:02.00

Peak level 77.4 %
Extraction speed 0.8 X
Track quality 99.9 %
Test CRC DE6CE3A1
Copy CRC DE6CE3A1
Cannot be verified as accurate (confidence 2) [E0130CA3], AccurateRip returned [6EB7D5D3] (AR v2)
Copy OK

Track 2

Filename E:\EAC Rips\Kenny Rogers - 30 All-Time Love Songs (1996) [FLAC-CD] {ID,PT. ISS,RR CD-0040597}\CD2\02 - I Swear.wav

Pre-gap length 0:00:02.68

Peak level 95.9 %
Extraction speed 1.1 X
Track quality 100.0 %
Test CRC B42D99D3
Copy CRC B42D99D3
Cannot be verified as accurate (confidence 2) [8B93EE90], AccurateRip returned [395FDAAC] (AR v2)
Copy OK

Track 3

Filename E:\EAC Rips\Kenny Rogers - 30 All-Time Love Songs (1996) [FLAC-CD] {ID,PT. ISS,RR CD-0040597}\CD2\03 - Stardust.wav

Pre-gap length 0:00:01.47

Peak level 74.6 %
Extraction speed 1.2 X
Track quality 100.0 %
Test CRC C5308108
Copy CRC C5308108
Cannot be verified as accurate (confidence 2) [9F997D68], AccurateRip returned [E11504B5] (AR v2)
Copy OK

Track 4

Filename E:\EAC Rips\Kenny Rogers - 30 All-Time Love Songs (1996) [FLAC-CD] {ID,PT. ISS,RR CD-0040597}\CD2\04 - I Will Always Love You.wav

Pre-gap length 0:00:02.39

Peak level 98.9 %
Extraction speed 1.3 X
Track quality 100.0 %
Test CRC D34F8F30
Copy CRC D34F8F30
Cannot be verified as accurate (confidence 2) [6B093178], AccurateRip returned [3B78264D] (AR v2)
Copy OK

Track 5

Filename E:\EAC Rips\Kenny Rogers - 30 All-Time Love Songs (1996) [FLAC-CD] {ID,PT. ISS,RR CD-0040597}\CD2\05 - You Send Me.wav

Pre-gap length 0:00:01.62

Peak level 79.6 %
Extraction speed 1.4 X
Track quality 100.0 %
Test CRC D7F64D77
Copy CRC D7F64D77
Cannot be verified as accurate (confidence 2) [251CAE32], AccurateRip returned [4F73987E] (AR v2)
Copy OK

Track 6

Filename E:\EAC Rips\Kenny Rogers - 30 All-Time Love Songs (1996) [FLAC-CD] {ID,PT. ISS,RR CD-0040597}\CD2\06 - Through the Years.wav

Pre-gap length 0:00:00.74

Peak level 84.8 %
Extraction speed 1.5 X
Track quality 100.0 %
Test CRC 2A89D6D1
Copy CRC 2A89D6D1
Cannot be verified as accurate (confidence 2) [018594F7], AccurateRip returned [EF688040] (AR v2)
Copy OK

Track 7

Filename E:\EAC Rips\Kenny Rogers - 30 All-Time Love Songs (1996) [FLAC-CD] {ID,PT. ISS,RR CD-0040597}\CD2\07 - Unchained Melody.wav

Pre-gap length 0:00:02.39

Peak level 87.7 %
Extraction speed 1.5 X
Track quality 100.0 %
Test CRC E0CCD3D1
Copy CRC E0CCD3D1
Cannot be verified as accurate (confidence 2) [A001C02E], AccurateRip returned [3327F31D] (AR v2)
Copy OK

Track 8

Filename E:\EAC Rips\Kenny Rogers - 30 All-Time Love Songs (1996) [FLAC-CD] {ID,PT. ISS,RR CD-0040597}\CD2\08 - Lady.wav

Pre-gap length 0:00:02.40

Peak level 100.0 %
Extraction speed 1.6 X
Track quality 100.0 %
Test CRC 52B0944A
Copy CRC 52B0944A
Cannot be verified as accurate (confidence 2) [408C72A6], AccurateRip returned [49A9F055] (AR v2)
Copy OK

Track 9

Filename E:\EAC Rips\Kenny Rogers - 30 All-Time Love Songs (1996) [FLAC-CD] {ID,PT. ISS,RR CD-0040597}\CD2\09 - Always and Forever.wav

Peak level 98.6 %
Extraction speed 1.8 X
Track quality 100.0 %
Test CRC D3462358
Copy CRC D3462358
Cannot be verified as accurate (confidence 2) [7EEA2BE1], AccurateRip returned [6410CB92] (AR v2)
Copy OK

Track 10

Filename E:\EAC Rips\Kenny Rogers - 30 All-Time Love Songs (1996) [FLAC-CD] {ID,PT. ISS,RR CD-0040597}\CD2\10 - My Funny Valentine.wav

Peak level 81.5 %
Extraction speed 1.8 X
Track quality 100.0 %
Test CRC 3D986C1D
Copy CRC 3D986C1D
Cannot be verified as accurate (confidence 2) [1032B02C], AccurateRip returned [C5F8044C] (AR v2)
Copy OK

Track 11

Filename E:\EAC Rips\Kenny Rogers - 30 All-Time Love Songs (1996) [FLAC-CD] {ID,PT. ISS,RR CD-0040597}\CD2\11 - Somewhere My Love.wav

Pre-gap length 0:00:02.33

Peak level 70.5 %
Extraction speed 1.7 X
Track quality 100.0 %
Test CRC 7FBEEFD6
Copy CRC 7FBEEFD6
Cannot be verified as accurate (confidence 2) [5A577BB1], AccurateRip returned [BE06870C] (AR v2)
Copy OK

Track 12

Filename E:\EAC Rips\Kenny Rogers - 30 All-Time Love Songs (1996) [FLAC-CD] {ID,PT. ISS,RR CD-0040597}\CD2\12 - You Are So Beautiful.wav

Pre-gap length 0:00:02.31

Peak level 98.6 %
Extraction speed 1.6 X
Track quality 99.9 %
Test CRC 9A60BB4F
Copy CRC 9A60BB4F
Cannot be verified as accurate (confidence 2) [299895D9], AccurateRip returned [D5461C12] (AR v2)
Copy OK

Track 13

Filename E:\EAC Rips\Kenny Rogers - 30 All-Time Love Songs (1996) [FLAC-CD] {ID,PT. ISS,RR CD-0040597}\CD2\13 - You Light Up My Life.wav

Pre-gap length 0:00:02.34

Peak level 98.4 %
Extraction speed 1.9 X
Track quality 100.0 %
Test CRC FF1F6ABD
Copy CRC FF1F6ABD
Cannot be verified as accurate (confidence 2) [3EAEBEE6], AccurateRip returned [2AF39FA1] (AR v2)
Copy OK

Track 14

Filename E:\EAC Rips\Kenny Rogers - 30 All-Time Love Songs (1996) [FLAC-CD] {ID,PT. ISS,RR CD-0040597}\CD2\14 - Love Is a Many Splendored Thing.wav

Peak level 100.0 %
Extraction speed 1.9 X
Track quality 100.0 %
Test CRC 0103A8C2
Copy CRC 0103A8C2
Cannot be verified as accurate (confidence 2) [1C2ACF53], AccurateRip returned [852DDDE7] (AR v2)
Copy OK

Track 15

Filename E:\EAC Rips\Kenny Rogers - 30 All-Time Love Songs (1996) [FLAC-CD] {ID,PT. ISS,RR CD-0040597}\CD2\15 - Love Me Tender.wav

Pre-gap length 0:00:02.34

Peak level 62.1 %
Extraction speed 2.0 X
Track quality 100.0 %
Test CRC 7D52B154
Copy CRC 7D52B154
Cannot be verified as accurate (confidence 2) [03D07DEA], AccurateRip returned [20CBBAB9] (AR v2)
Copy OK


No tracks could be verified as accurate
You may have a different pressing from the one(s) in the database

No errors occurred

End of status report

–– CUETools DB Plugin V2.1.6

[CTDB TOCID: IFz4Ga39hoB5OHEqei76DesoZq4-] found
Submit result: IFz4Ga39hoB5OHEqei76DesoZq4- has been confirmed
Track | CTDB Status
1 | (20/21) Accurately ripped
2 | (20/21) Accurately ripped
3 | (21/21) Accurately ripped
4 | (21/21) Accurately ripped
5 | (21/21) Accurately ripped
6 | (20/21) Accurately ripped
7 | (21/21) Accurately ripped
8 | (21/21) Accurately ripped
9 | (20/21) Accurately ripped
10 | (21/21) Accurately ripped
11 | (20/21) Accurately ripped
12 | (20/21) Accurately ripped
13 | (20/21) Accurately ripped
14 | (20/21) Accurately ripped
15 | (20/21) Accurately ripped


==== Log checksum C43AD4CEFC63B1A77162EC10BFCA427B5B8ACE1D7F44F0D2E1EF2148287F8C67 ====

––––––––––––––––––––––––––––––––––––––––
Analyzed: Kenny Rogers / 30 All-Time Love Songs CD1
––––––––––––––––––––––––––––––––––––––––

DR Peak RMS Duration Track
––––––––––––––––––––––––––––––––––––––––
DR13 -0.30 dB -15.81 dB 4:50 01-Have I Told You Lately That I Love You
DR12 -0.27 dB -15.64 dB 2:52 02-As Time Goes By
DR10 0.00 dB -12.95 dB 3:52 03-Endless Love
DR11 -0.21 dB -15.05 dB 3:24 04-Unforgettable
DR11 -1.00 dB -14.71 dB 4:18 05-I Only Have Eyes for You
DR11 0.00 dB -15.21 dB 3:36 06-Evergreen
DR13 -1.01 dB -16.63 dB 3:21 07-Misty
DR9 -0.90 dB -14.00 dB 4:20 08-She Believes in Me
DR10 -0.18 dB -12.91 dB 2:38 09-Always
DR10 -0.11 dB -13.51 dB 3:29 10-When I Fall in Love
DR11 -0.38 dB -14.43 dB 3:21 11-Crazy
DR11 -1.40 dB -15.20 dB 3:47 12-When a Man Loves a Woman
DR10 -0.90 dB -14.24 dB 3:47 13-You Decorated My Life
DR10 0.00 dB -13.09 dB 3:23 14-I Can't Help Falling in Love
DR12 -0.22 dB -17.00 dB 3:38 15-The Wind Beneath My Wings
––––––––––––––––––––––––––––––––––––––––

Number of tracks: 15
Official DR value: DR11

Samplerate: 44100 Hz
Channels: 2
Bits per sample: 16
Bitrate: 771 kbps
Codec: FLAC
================================================================================

––––––––––––––––––––––––––––––––––––––––
Analyzed: Kenny Rogers / 30 All-Time Love Songs CD2
––––––––––––––––––––––––––––––––––––––––

DR Peak RMS Duration Track
––––––––––––––––––––––––––––––––––––––––
DR11 -2.22 dB -15.77 dB 2:43 01-It Had to Be You
DR12 -0.36 dB -15.31 dB 3:51 02-I Swear
DR11 -2.54 dB -16.82 dB 3:46 03-Stardust
DR13 -0.09 dB -17.96 dB 3:01 04-I Will Always Love You
DR11 -1.98 dB -15.40 dB 3:06 05-You Send Me
DR10 -1.42 dB -15.42 dB 3:30 06-Through the Years
DR10 -1.14 dB -14.58 dB 3:29 07-Unchained Melody
DR11 0.00 dB -15.21 dB 3:50 08-Lady
DR12 -0.12 dB -14.86 dB 4:47 09-Always and Forever
DR13 -1.77 dB -19.02 dB 4:08 10-My Funny Valentine
DR10 -3.03 dB -16.71 dB 2:47 11-Somewhere My Love
DR10 -0.12 dB -14.70 dB 3:11 12-You Are So Beautiful
DR10 -0.14 dB -13.38 dB 3:10 13-You Light Up My Life
DR11 0.00 dB -13.48 dB 2:40 14-Love Is a Many Splendored Thing
DR11 -4.12 dB -18.69 dB 3:05 15-Love Me Tender
––––––––––––––––––––––––––––––––––––––––

Number of tracks: 15
Official DR value: DR11

Samplerate: 44100 Hz
Channels: 2
Bits per sample: 16
Bitrate: 592 kbps
Codec: FLAC
================================================================================

All thanks to original releaser

See also:


password: BlondStyle