Tags
Language
Tags
May 2024
Su Mo Tu We Th Fr Sa
28 29 30 1 2 3 4
5 6 7 8 9 10 11
12 13 14 15 16 17 18
19 20 21 22 23 24 25
26 27 28 29 30 31 1

Kevin Eubanks - Opening Night (1985) {GRP}

Posted By: tiburon
Kevin Eubanks - Opening Night (1985) {GRP}

Kevin Eubanks - Opening Night (1985) {GRP}
EAC 1.2 | FLAC tracks level 8 | Cue+Log+M3U | Full Scans 300dpi | 216MB + 5% Recovery
MP3 CBR 320 Kbps | 96MB + 5% Recovery
Genre: Post-Bop, Fusion

Kevin Tyrone Eubanks is an American jazz and fusion guitarist and composer. He was the leader of The Tonight Show Band with host Jay Leno from 1995 to 2010. He also led the Primetime Band on the short-lived The Jay Leno Show.
Track List
01. Opening Night
02. Shades Of Black
03. The Navigator
04. Thought About Thinking
05. In Flight From Omelas
06. A Place Before you've Been
07. Vera's Isle
08. To Be Continued

musicians
Kevin Eubanks - electric guitar, acoustic guitars
Branford Marsalis - tenor sax
Buster Williams - acoustic bass
Kenny Kirkland - acoustic piano
Kent Jordan - alto flute
Big Black - tumba drums
Tommy Campbell - drums
David Eubanks - bass
Marvin "Smitty" Smith - drums

Produced by Kevin Eubanks


Exact Audio Copy V1.2 from 12. August 2016

EAC extraction logfile from 25. March 2017, 0:29

Kevin Eubanks / Opening Night

Used drive : HL-DT-STDVDRAM AP70NS50 Adapter: 1 ID: 1

Read mode : Secure
Utilize accurate stream : Yes
Defeat audio cache : Yes
Make use of C2 pointers : No

Read offset correction : 6
Overread into Lead-In and Lead-Out : No
Fill up missing offset samples with silence : Yes
Delete leading and trailing silent blocks : No
Null samples used in CRC calculations : Yes
Used interface : Native Win32 interface for Win NT & 2000
Gap handling : Not detected, thus appended to previous track

Used output format : Internal WAV Routines
Sample format : 44.100 Hz; 16 Bit; Stereo


TOC of the extracted CD

Track | Start | Length | Start sector | End sector
––––––––––––––––––––––––––––-
1 | 0:00.00 | 4:02.25 | 0 | 18174
2 | 4:02.25 | 5:03.67 | 18175 | 40966
3 | 9:06.17 | 4:45.63 | 40967 | 62404
4 | 13:52.05 | 4:06.45 | 62405 | 80899
5 | 17:58.50 | 4:08.40 | 80900 | 99539
6 | 22:07.15 | 6:03.22 | 99540 | 126786
7 | 28:10.37 | 4:52.25 | 126787 | 148711
8 | 33:02.62 | 4:39.68 | 148712 | 169704


Track 1

Filename C:\Users\Stan.Stan-PC\Music\[Lossless]\Kevin Eubanks\1985 Opening Night\01 Opening Night.wav

Peak level 96.2 %
Extraction speed 2.1 X
Track quality 99.9 %
Copy CRC 326F446E
Cannot be verified as accurate (confidence 10) [D6D1541C], AccurateRip returned [7994C7F1] (AR v2)
Copy OK

Track 2

Filename C:\Users\Stan.Stan-PC\Music\[Lossless]\Kevin Eubanks\1985 Opening Night\02 Shades Of Black.wav

Peak level 100.0 %
Extraction speed 3.1 X
Track quality 100.0 %
Copy CRC C5C964F5
Cannot be verified as accurate (confidence 10) [DF6E261B], AccurateRip returned [8E25ED39] (AR v2)
Copy OK

Track 3

Filename C:\Users\Stan.Stan-PC\Music\[Lossless]\Kevin Eubanks\1985 Opening Night\03 The Navigator.wav

Peak level 81.8 %
Extraction speed 3.0 X
Track quality 99.9 %
Copy CRC 4C909491
Cannot be verified as accurate (confidence 10) [4C8699E1], AccurateRip returned [64E75573] (AR v2)
Copy OK

Track 4

Filename C:\Users\Stan.Stan-PC\Music\[Lossless]\Kevin Eubanks\1985 Opening Night\04 Thought About Thinking.wav

Peak level 64.8 %
Extraction speed 3.5 X
Track quality 100.0 %
Copy CRC B661CFF8
Cannot be verified as accurate (confidence 10) [A0029967], AccurateRip returned [5366B4FC] (AR v2)
Copy OK

Track 5

Filename C:\Users\Stan.Stan-PC\Music\[Lossless]\Kevin Eubanks\1985 Opening Night\05 In Flight From Omelas.wav

Peak level 84.4 %
Extraction speed 3.8 X
Track quality 100.0 %
Copy CRC F2AF0057
Cannot be verified as accurate (confidence 10) [271FCC0D], AccurateRip returned [8BE0F1CA] (AR v2)
Copy OK

Track 6

Filename C:\Users\Stan.Stan-PC\Music\[Lossless]\Kevin Eubanks\1985 Opening Night\06 A Place Before you've Been.wav

Peak level 90.6 %
Extraction speed 4.3 X
Track quality 100.0 %
Copy CRC 6F9C6AB4
Cannot be verified as accurate (confidence 10) [6A7226DE], AccurateRip returned [C3F48B8C] (AR v2)
Copy OK

Track 7

Filename C:\Users\Stan.Stan-PC\Music\[Lossless]\Kevin Eubanks\1985 Opening Night\07 Vera's Isle.wav

Peak level 100.0 %
Extraction speed 4.5 X
Track quality 100.0 %
Copy CRC F3659C6F
Cannot be verified as accurate (confidence 10) [078D7C8F], AccurateRip returned [3AF97959] (AR v2)
Copy OK

Track 8

Filename C:\Users\Stan.Stan-PC\Music\[Lossless]\Kevin Eubanks\1985 Opening Night\08 To Be Continued.wav

Peak level 72.8 %
Extraction speed 4.6 X
Track quality 100.0 %
Copy CRC 0AF37058
Cannot be verified as accurate (confidence 10) [0838BB9E], AccurateRip returned [D9BC3D71] (AR v2)
Copy OK


No tracks could be verified as accurate
You may have a different pressing from the one(s) in the database

No errors occurred

End of status report

–– CUETools DB Plugin V2.1.6

[CTDB TOCID: XPSwwztnWy6wYc85Z2v8Otct4h0-] found
Submit result: XPSwwztnWy6wYc85Z2v8Otct4h0- has been confirmed
Track | CTDB Status
1 | (17/17) Accurately ripped
2 | (17/17) Accurately ripped
3 | (17/17) Accurately ripped
4 | (17/17) Accurately ripped
5 | (17/17) Accurately ripped
6 | (17/17) Accurately ripped
7 | (17/17) Accurately ripped
8 | (17/17) Accurately ripped

Kevin Eubanks - Opening Night (1985) {GRP}
Kevin Eubanks - Opening Night (1985) {GRP}


Thanks to the original ripper