Tags
Language
Tags

Kid Ory - Mahagony Hall Stomp (Quadromania) [Recorded 1922-1954] [4CD Box Set] (2005)

Posted By: gribovar
Kid Ory - Mahagony Hall Stomp (Quadromania) [Recorded 1922-1954] [4CD Box Set] (2005)

Kid Ory - Mahagony Hall Stomp (Quadromania) [Recorded 1922-1954] [4CD Box Set] (2005)
EAC Rip | FLAC (image+.cue+log) - 1,06 GB | Covers - 24 MB
Genre: New Orleans Jazz, Dixieland | RAR 3% Rec. | Label: Membran Music (222466-444)

Kid Ory was one of the great New Orleans pioneers, an early trombonist who virtually defined the "tailgate" style (using his horn to play rhythmic bass lines in the front line behind the trumpet and clarinet) and who was fortunate enough to last through the lean years so he could make a major comeback in the mid-'40s. Originally a banjoist, Ory soon switched to trombone and by 1911 was leading a popular band in New Orleans. Among his trumpeters during the next eight years were Mutt Carey, King Oliver and a young Louis Armstrong and his clarinetists included Johnny Dodds, Sidney Bechet, and Jimmie Noone. In 1919, Ory moved to California and in 1922 (possibly 1921) recorded the first two titles by a Black New Orleans jazz band ("Ory's Creole Trombone" and "Society Blues") under the band title of Spike's Seven Pods of Pepper Orchestra. In 1925 he moved to Chicago, played regularly with King Oliver, and recorded many classic sides with Oliver, Louis Armstrong (in his Hot Five and Seven), and Jelly Roll Morton, among others.
The definitive New Orleans trombonist of the 1920s, Ory (whose "Muskrat Ramble" became a standard) was mostly out of music after 1930, running a chicken ranch with his brother. However in 1942 he was persuaded to return, and after a stint with Barney Bigard's group, he formed his own band. Ory's group was featured on Orson Welles' radio show in 1944 and the publicity made it possible for the band to catch on. The New Orleans revival was in full swing and Ory (whose group included trumpeter Mutt Carey and clarinetists Omer Simeon or Darnell Howard) was still in prime form. He appeared in the 1946 film New Orleans (and later on in The Benny Goodman Story) and worked steadily in Los Angeles. After Mutt Carey departed in 1948, Ory used Teddy Buckner, Marty Marsala, Alvin Alcorn (the perfect musician for his group), and Red Allen on trumpets and his Dixieland bands always boasted high musicianship (even with the leader's purposely primitive style) and a consistent level of excitement. They recorded regularly (most notably for Good Time Jazz) up to 1960 by which time Ory (already 73) was cutting back on his activities. He retired altogether in 1966, moving to Hawaii.
CD 1 Tracklist:
01. High Society
02. Savoy Blues
03. Clarinet Marmalade
04. Oh! Didn't He Ramble
05. Blues
06. Muskrat Ramble
07. Blues Habanera
08. Creole Song
09. Lonesome Road
10. High Society
11. Maple Leaf Rag
12. Improvisation in B
13. Muskrat Ramble
14. Bye 'n Bye
15. Swing Low, Sweet Chariot
16. Closing Dialogue

Total time: 42:38

CD 2 Tracklist:
01. Do What Ory Say
02. Careless Love
03. Eh! La Bas
04. Basin Street Blues
05. Rifle Rangers
06. Blues For Jimmie
07. High Society
08. Boogie Woogie
09. Sister Kate
10. Memphis
11. Oh! Didn't He Ramble
12. Without You For An Inspiration
13. All The Girls So Crazy
14. Go Back Where You Stayed Last Night

Total time: 01:02:37

CD 3 Tracklist:
01. Panama Rag
02. Sister Kate
03. Mahogany Hall Stomp
04. Margie
05. Chinatown, My Chinatown
06. Do You Know What It Means, To Miss New Orleans
07. Sugar Foot Stomp
08. Black And Blue
09. Oh! Didn't He Ramble
10. At The Jazz Band Ball
11. High Society
12. Sweet Georgia Brown
13. San
14. Shake That Thing
15. Ory's Boogie

Total time: 51:48

CD 4 Tracklist:
01. Ory's Creole Trombone
02. 29th And Dearborn
03. Gatemouth
04. Papa Dip
05. South
06. Blues For Jimmy
07. Muskrat Ramble
08. Wolverine Blues
09. Maple Leaf Rag
10. Clarinet Marmalade
11. That's A Plenty
12. Gettysburg March
13. Yellow Dog Blues
14. I Found A New Baby
15. When The Saints Go Marching In

Total time: 01:04:39

Exact Audio Copy V0.99 prebeta 5 from 4. May 2009

EAC extraction logfile from 14. October 2010, 17:16

Kid Ory / Mahagony Hall Stomp (Quadromania, disc 1)

Used drive : PIONEER DVD-RW DVR-111D Adapter: 1 ID: 0

Read mode : Secure
Utilize accurate stream : Yes
Defeat audio cache : Yes
Make use of C2 pointers : No

Read offset correction : 48
Overread into Lead-In and Lead-Out : No
Fill up missing offset samples with silence : Yes
Delete leading and trailing silent blocks : No
Null samples used in CRC calculations : Yes
Used interface : Native Win32 interface for Win NT & 2000

Used output format : Internal WAV Routines
Sample format : 44.100 Hz; 16 Bit; Stereo


TOC of the extracted CD

Track | Start | Length | Start sector | End sector
––––––––––––––––––––––––––––-
1 | 0:00.00 | 3:34.02 | 0 | 16051
2 | 3:34.02 | 6:08.39 | 16052 | 43690
3 | 9:42.41 | 3:03.27 | 43691 | 57442
4 | 12:45.68 | 1:08.39 | 57443 | 62581
5 | 13:54.32 | 1:41.05 | 62582 | 70161
6 | 15:35.37 | 2:10.31 | 70162 | 79942
7 | 17:45.68 | 4:05.52 | 79943 | 98369
8 | 21:51.45 | 2:02.50 | 98370 | 107569
9 | 23:54.20 | 1:44.02 | 107570 | 115371
10 | 25:38.22 | 2:55.48 | 115372 | 128544
11 | 28:33.70 | 3:52.28 | 128545 | 145972
12 | 32:26.23 | 3:32.52 | 145973 | 161924
13 | 35:59.00 | 2:35.03 | 161925 | 173552
14 | 38:34.03 | 2:04.49 | 173553 | 182901
15 | 40:38.52 | 1:10.33 | 182902 | 188184
16 | 41:49.10 | 0:48.32 | 188185 | 191816


Range status and errors

Selected range

Filename S:\Q U A D R O M A N I A\Kid Ory - Mahagony Hall Stomp (Quadromania, disc 1).wav

Peak level 100.0 %
Range quality 99.9 %
Test CRC 2EC5833E
Copy CRC 2EC5833E
Copy OK

No errors occurred


AccurateRip summary

Track 1 not present in database
Track 2 not present in database
Track 3 not present in database
Track 4 not present in database
Track 5 not present in database
Track 6 not present in database
Track 7 not present in database
Track 8 not present in database
Track 9 not present in database
Track 10 not present in database
Track 11 not present in database
Track 12 not present in database
Track 13 not present in database
Track 14 not present in database
Track 15 not present in database
Track 16 not present in database

None of the tracks are present in the AccurateRip database

End of status report

[CUETools log; Date: 07.06.2018 2:03:45; Version: 2.1.4]
[CTDB TOCID: pyJaVRL7tRpECwu8ZJ463w4a7wc-] found.
Track | CTDB Status
1 | (3/3) Accurately ripped
2 | (3/3) Accurately ripped
3 | (3/3) Accurately ripped
4 | (3/3) Accurately ripped
5 | (3/3) Accurately ripped
6 | (3/3) Accurately ripped
7 | (3/3) Accurately ripped
8 | (3/3) Accurately ripped
9 | (3/3) Accurately ripped
10 | (3/3) Accurately ripped
11 | (3/3) Accurately ripped
12 | (3/3) Accurately ripped
13 | (3/3) Accurately ripped
14 | (3/3) Accurately ripped
15 | (3/3) Accurately ripped
16 | (3/3) Accurately ripped
[AccurateRip ID: 001bd555-01452e54-cf09fd10] found.
Track [ CRC | V2 ] Status
01 [9a83e1b4|2fe223e2] (0+3/3) Accurately ripped
02 [dca146d0|9a93a56a] (0+3/3) Accurately ripped
03 [ea204331|6f737146] (0+3/3) Accurately ripped
04 [731e316e|9e84eee2] (0+3/3) Accurately ripped
05 [99d20f5f|b5a2ec91] (0+3/3) Accurately ripped
06 [ab38fdd6|87c7c7f7] (0+3/3) Accurately ripped
07 [f1878cda|c9bd7290] (0+3/3) Accurately ripped
08 [a61b8b75|8469a0ad] (0+3/3) Accurately ripped
09 [7ffbf11d|d5ce2336] (0+3/3) Accurately ripped
10 [db16fac4|a8b2aa96] (0+3/3) Accurately ripped
11 [9a5a5fa8|dc3269b7] (0+3/3) Accurately ripped
12 [de661c35|e75a1a4d] (0+3/3) Accurately ripped
13 [3095da79|793446a0] (0+3/3) Accurately ripped
14 [32434f3c|2e5738e3] (0+3/3) Accurately ripped
15 [58938881|0ccf09e8] (0+3/3) Accurately ripped
16 [5163e53a|daba31da] (0+3/3) Accurately ripped

Track Peak [ CRC32 ] [W/O NULL] [ LOG ]
– 100,0 [2EC5833E] [D458FD4A] CRC32
01 99,9 [47732B81] [326E954E]
02 99,7 [0AE29477] [BE909757]
03 99,9 [B3D26F24] [5F486728]
04 99,7 [CC612B41] [9D882457]
05 99,9 [3F697F47] [8794069C]
06 99,8 [BF878790] [D072F77C]
07 99,8 [B5A4E15D] [A0C35CB2]
08 100,0 [B7496FBA] [F532CC95]
09 100,0 [33A9B296] [CF00CA92]
10 99,9 [BBB54A88] [8AF89577]
11 99,9 [2B79669D] [220202DC]
12 99,9 [FA879F56] [5C21BC3E]
13 99,8 [FBF0CF46] [DC68ED7D]
14 100,0 [56E8C848] [7C7E3BC3]
15 99,9 [DFE772F2] [D9DF2D5C]
16 99,9 [2F4B1952] [4EFFCB4A]

Exact Audio Copy V0.99 prebeta 5 from 4. May 2009

EAC extraction logfile from 14. October 2010, 17:40

Kid Ory / Mahagony Hall Stomp (Quadromania, disc 2)

Used drive : PIONEER DVD-RW DVR-111D Adapter: 1 ID: 0

Read mode : Secure
Utilize accurate stream : Yes
Defeat audio cache : Yes
Make use of C2 pointers : No

Read offset correction : 48
Overread into Lead-In and Lead-Out : No
Fill up missing offset samples with silence : Yes
Delete leading and trailing silent blocks : No
Null samples used in CRC calculations : Yes
Used interface : Native Win32 interface for Win NT & 2000

Used output format : Internal WAV Routines
Sample format : 44.100 Hz; 16 Bit; Stereo


TOC of the extracted CD

Track | Start | Length | Start sector | End sector
––––––––––––––––––––––––––––-
1 | 0:00.00 | 3:21.51 | 0 | 15125
2 | 3:21.51 | 6:00.51 | 15126 | 42176
3 | 9:22.27 | 4:25.32 | 42177 | 62083
4 | 13:47.59 | 5:30.45 | 62084 | 86878
5 | 19:18.29 | 3:44.51 | 86879 | 103729
6 | 23:03.05 | 8:07.68 | 103730 | 140322
7 | 31:10.73 | 3:43.46 | 140323 | 157093
8 | 34:54.44 | 2:51.58 | 157094 | 169976
9 | 37:46.27 | 4:11.55 | 169977 | 188856
10 | 41:58.07 | 4:59.55 | 188857 | 211336
11 | 46:57.62 | 3:32.57 | 211337 | 227293
12 | 50:30.44 | 5:00.43 | 227294 | 249836
13 | 55:31.12 | 3:38.56 | 249837 | 266242
14 | 59:09.68 | 3:27.23 | 266243 | 281790


Range status and errors

Selected range

Filename S:\Q U A D R O M A N I A\Kid Ory - Mahagony Hall Stomp (Quadromania, disc 2).wav

Peak level 100.0 %
Range quality 100.0 %
Test CRC BC0BB513
Copy CRC BC0BB513
Copy OK

No errors occurred


AccurateRip summary

Track 1 not present in database
Track 2 not present in database
Track 3 not present in database
Track 4 not present in database
Track 5 not present in database
Track 6 not present in database
Track 7 not present in database
Track 8 not present in database
Track 9 not present in database
Track 10 not present in database
Track 11 not present in database
Track 12 not present in database
Track 13 not present in database
Track 14 not present in database

None of the tracks are present in the AccurateRip database

End of status report

[CUETools log; Date: 07.06.2018 2:04:15; Version: 2.1.4]
[CTDB TOCID: 6ChtiQAhMN5FyupWce.Uez4FRA4-] found.
Track | CTDB Status
1 | (1/1) Accurately ripped
2 | (1/1) Accurately ripped
3 | (1/1) Accurately ripped
4 | (1/1) Accurately ripped
5 | (1/1) Accurately ripped
6 | (1/1) Accurately ripped
7 | (1/1) Accurately ripped
8 | (1/1) Accurately ripped
9 | (1/1) Accurately ripped
10 | (1/1) Accurately ripped
11 | (1/1) Accurately ripped
12 | (1/1) Accurately ripped
13 | (1/1) Accurately ripped
14 | (1/1) Accurately ripped
[AccurateRip ID: 00219c7d-0164a756-b60ead0e] found.
Track [ CRC | V2 ] Status
01 [7cfa2544|7f192162] (0+3/3) Accurately ripped
02 [cde5e3f9|20252400] (0+3/3) Accurately ripped
03 [cc3ccf1c|0102af19] (0+3/3) Accurately ripped
04 [5a83a0b7|0f18b40f] (0+3/3) Accurately ripped
05 [11916493|e53c9dbb] (0+3/3) Accurately ripped
06 [77637061|7e6c77e7] (0+3/3) Accurately ripped
07 [10f2cae5|395a469f] (0+3/3) Accurately ripped
08 [8007c210|c5299e80] (0+3/3) Accurately ripped
09 [d079f7fa|7d6bd94a] (0+3/3) Accurately ripped
10 [38bdd1c9|a154119a] (0+3/3) Accurately ripped
11 [91165379|899efef9] (0+3/3) Accurately ripped
12 [9da9268a|c7c16b27] (0+3/3) Accurately ripped
13 [c0fb0057|6c63d6eb] (0+3/3) Accurately ripped
14 [26d4a669|f55126f4] (0+3/3) Accurately ripped

Track Peak [ CRC32 ] [W/O NULL] [ LOG ]
– 100,0 [BC0BB513] [35F0C58B] CRC32
01 99,9 [135464E7] [365014CC]
02 99,9 [7C25479A] [D5224D60]
03 100,0 [0E46F610] [5FBABCBF]
04 99,9 [2E926A88] [8D3786C8]
05 99,8 [C403CDAD] [52A2D985]
06 99,6 [9C34DF08] [70C4B967]
07 99,9 [4B00EA2C] [E33CAE7A]
08 99,9 [0AF5CE78] [B6AFAAA4]
09 99,9 [3257EA06] [519CD589]
10 99,8 [C807A087] [A9F31CAE]
11 99,9 [EBF001CD] [70686A9F]
12 100,0 [302D323A] [6040873D]
13 99,9 [0CE4916B] [4EBF0F22]
14 99,8 [785D3BF1] [A62CF6C6]

Exact Audio Copy V0.99 prebeta 5 from 4. May 2009

EAC extraction logfile from 14. October 2010, 18:03

Kid Ory / Mahagony Hall Stomp (Quadromania, disc 3)

Used drive : PIONEER DVD-RW DVR-111D Adapter: 1 ID: 0

Read mode : Secure
Utilize accurate stream : Yes
Defeat audio cache : Yes
Make use of C2 pointers : No

Read offset correction : 48
Overread into Lead-In and Lead-Out : No
Fill up missing offset samples with silence : Yes
Delete leading and trailing silent blocks : No
Null samples used in CRC calculations : Yes
Used interface : Native Win32 interface for Win NT & 2000

Used output format : Internal WAV Routines
Sample format : 44.100 Hz; 16 Bit; Stereo


TOC of the extracted CD

Track | Start | Length | Start sector | End sector
––––––––––––––––––––––––––––-
1 | 0:00.00 | 3:50.28 | 0 | 17277
2 | 3:50.28 | 4:13.62 | 17278 | 36314
3 | 8:04.15 | 2:56.38 | 36315 | 49552
4 | 11:00.53 | 3:53.27 | 49553 | 67054
5 | 14:54.05 | 3:11.57 | 67055 | 81436
6 | 18:05.62 | 3:35.42 | 81437 | 97603
7 | 21:41.29 | 2:52.57 | 97604 | 110560
8 | 24:34.11 | 3:05.33 | 110561 | 124468
9 | 27:39.44 | 3:17.47 | 124469 | 139290
10 | 30:57.16 | 2:59.40 | 139291 | 152755
11 | 33:56.56 | 3:41.06 | 152756 | 169336
12 | 37:37.62 | 4:14.06 | 169337 | 188392
13 | 41:51.68 | 3:40.66 | 188393 | 204958
14 | 45:32.59 | 3:30.72 | 204959 | 220780
15 | 49:03.56 | 2:44.15 | 220781 | 233095


Range status and errors

Selected range

Filename S:\Q U A D R O M A N I A\Kid Ory - Mahagony Hall Stomp (Quadromania, disc 3).wav

Peak level 100.0 %
Range quality 100.0 %
Test CRC 00B9C9B5
Copy CRC 00B9C9B5
Copy OK

No errors occurred


AccurateRip summary

Track 1 not present in database
Track 2 not present in database
Track 3 not present in database
Track 4 not present in database
Track 5 not present in database
Track 6 not present in database
Track 7 not present in database
Track 8 not present in database
Track 9 not present in database
Track 10 not present in database
Track 11 not present in database
Track 12 not present in database
Track 13 not present in database
Track 14 not present in database
Track 15 not present in database

None of the tracks are present in the AccurateRip database

End of status report

[CUETools log; Date: 07.06.2018 2:04:58; Version: 2.1.4]
[CTDB TOCID: aT1QCibiMeHc60OprZkEU2M_EGI-] found.
Track | CTDB Status
1 | (2/2) Accurately ripped
2 | (2/2) Accurately ripped
3 | (2/2) Accurately ripped
4 | (2/2) Accurately ripped
5 | (2/2) Accurately ripped
6 | (2/2) Accurately ripped
7 | (2/2) Accurately ripped
8 | (2/2) Accurately ripped
9 | (2/2) Accurately ripped
10 | (2/2) Accurately ripped
11 | (2/2) Accurately ripped
12 | (2/2) Accurately ripped
13 | (2/2) Accurately ripped
14 | (2/2) Accurately ripped
15 | (2/2) Accurately ripped
[AccurateRip ID: 001ce215-01454bcc-dc0c230f] found.
Track [ CRC | V2 ] Status
01 [edfa2779|84d320ec] (0+3/3) Accurately ripped
02 [f5fbe022|c24e0de9] (0+3/3) Accurately ripped
03 [e596f0af|310f1b4f] (0+3/3) Accurately ripped
04 [c24a20e1|efdfcbfb] (0+3/3) Accurately ripped
05 [ff618420|20ba28f8] (0+3/3) Accurately ripped
06 [83b17a7e|2a58797e] (0+3/3) Accurately ripped
07 [ed927a74|b863171f] (0+3/3) Accurately ripped
08 [1f85a0de|c172eb41] (0+3/3) Accurately ripped
09 [32b3d018|fa27d572] (0+3/3) Accurately ripped
10 [79441f53|5a647a5a] (0+3/3) Accurately ripped
11 [bc51b14a|6bec5e76] (0+3/3) Accurately ripped
12 [1bfebb9a|e892fe96] (0+3/3) Accurately ripped
13 [831bb737|8f7248af] (0+3/3) Accurately ripped
14 [2680b1eb|e7769324] (0+3/3) Accurately ripped
15 [458a8075|d299077d] (0+3/3) Accurately ripped

Track Peak [ CRC32 ] [W/O NULL] [ LOG ]
– 100,0 [00B9C9B5] [8DCBAD0D] CRC32
01 99,9 [71A4D100] [DCAD6D51]
02 99,9 [6628BB41] [7EE81100]
03 100,0 [DF54249A] [7DAA8D25]
04 99,9 [9B48D26B] [7930C6AA]
05 99,9 [D50FC5AE] [14CA5C88]
06 99,9 [4CCC3EB2] [2C3F4284]
07 99,9 [A81177FB] [3B047BB5]
08 99,9 [04FED832] [2E180555]
09 99,9 [8155F319] [7C652BEB]
10 99,8 [ABAD0492] [FFA7994A]
11 99,9 [C8075105] [FE65058A]
12 99,9 [E70150AB] [35BFED64]
13 100,0 [FE0CCBF2] [A2C1B8A5]
14 99,9 [39266B1E] [ABAA2A8A]
15 100,0 [5296A0FF] [91C9BF35]

Exact Audio Copy V0.99 prebeta 5 from 4. May 2009

EAC extraction logfile from 14. October 2010, 18:52

Kid Ory / Mahagony Hall Stomp (Quadromania, disc 4)

Used drive : PIONEER DVD-RW DVR-111D Adapter: 1 ID: 0

Read mode : Secure
Utilize accurate stream : Yes
Defeat audio cache : Yes
Make use of C2 pointers : No

Read offset correction : 48
Overread into Lead-In and Lead-Out : No
Fill up missing offset samples with silence : Yes
Delete leading and trailing silent blocks : No
Null samples used in CRC calculations : Yes
Used interface : Native Win32 interface for Win NT & 2000

Used output format : Internal WAV Routines
Sample format : 44.100 Hz; 16 Bit; Stereo


TOC of the extracted CD

Track | Start | Length | Start sector | End sector
––––––––––––––––––––––––––––-
1 | 0:00.00 | 3:04.53 | 0 | 13852
2 | 3:04.53 | 2:53.49 | 13853 | 26876
3 | 5:58.27 | 3:06.03 | 26877 | 40829
4 | 9:04.30 | 2:53.08 | 40830 | 53812
5 | 11:57.38 | 2:45.21 | 53813 | 66208
6 | 14:42.59 | 3:04.05 | 66209 | 80013
7 | 17:46.64 | 3:39.70 | 80014 | 96508
8 | 21:26.59 | 6:35.49 | 96509 | 126182
9 | 28:02.33 | 5:20.14 | 126183 | 150196
10 | 33:22.47 | 4:14.68 | 150197 | 169314
11 | 37:37.40 | 6:10.74 | 169315 | 197138
12 | 43:48.39 | 4:10.14 | 197139 | 215902
13 | 47:58.53 | 6:14.01 | 215903 | 243953
14 | 54:12.54 | 4:36.09 | 243954 | 264662
15 | 58:48.63 | 5:50.19 | 264663 | 290931


Range status and errors

Selected range

Filename S:\Q U A D R O M A N I A\Kid Ory - Mahagony Hall Stomp (Quadromania, disc 4).wav

Peak level 100.0 %
Range quality 100.0 %
Test CRC D374C2E5
Copy CRC D374C2E5
Copy OK

No errors occurred


AccurateRip summary

Track 1 not present in database
Track 2 not present in database
Track 3 not present in database
Track 4 not present in database
Track 5 not present in database
Track 6 not present in database
Track 7 not present in database
Track 8 not present in database
Track 9 not present in database
Track 10 not present in database
Track 11 not present in database
Track 12 not present in database
Track 13 not present in database
Track 14 not present in database
Track 15 not present in database

None of the tracks are present in the AccurateRip database

End of status report

[CUETools log; Date: 07.06.2018 2:05:20; Version: 2.1.4]
[CTDB TOCID: BzK.D9pILBurlzK2d1KdPHYplhM-] found.
Track | CTDB Status
1 | (2/2) Accurately ripped
2 | (2/2) Accurately ripped
3 | (2/2) Accurately ripped
4 | (2/2) Accurately ripped
5 | (2/2) Accurately ripped
6 | (2/2) Accurately ripped
7 | (2/2) Accurately ripped
8 | (2/2) Accurately ripped
9 | (2/2) Accurately ripped
10 | (2/2) Accurately ripped
11 | (2/2) Accurately ripped
12 | (2/2) Accurately ripped
13 | (2/2) Accurately ripped
14 | (2/2) Accurately ripped
15 | (2/2) Accurately ripped
[AccurateRip ID: 001f12a7-016df301-d10f270f] found.
Track [ CRC | V2 ] Status
01 [f89d6229|b6012d5c] (0+3/3) Accurately ripped
02 [0b240067|2184398d] (0+3/3) Accurately ripped
03 [998b941a|a4df7157] (0+3/3) Accurately ripped
04 [cb9fa8a2|84fda9f9] (0+3/3) Accurately ripped
05 [86fd7d1a|b26cf2cb] (0+3/3) Accurately ripped
06 [62c7bbdd|cf7695e5] (0+3/3) Accurately ripped
07 [e79464c6|3f923866] (0+3/3) Accurately ripped
08 [ac5f79b1|31a94c1f] (0+3/3) Accurately ripped
09 [a8d887bb|3d15e53d] (0+3/3) Accurately ripped
10 [61ca2a4c|09261b55] (0+3/3) Accurately ripped
11 [619fd3fe|ecc919d0] (0+3/3) Accurately ripped
12 [45359b22|f2e608d3] (0+3/3) Accurately ripped
13 [bd53a984|91453b01] (0+3/3) Accurately ripped
14 [b2836bde|d7e69dff] (0+3/3) Accurately ripped
15 [cecaf6f6|972621a9] (0+2/2) Accurately ripped

Track Peak [ CRC32 ] [W/O NULL] [ LOG ]
– 100,0 [D374C2E5] [B245BBF9] CRC32
01 99,9 [7E491978] [671439DF]
02 99,9 [88436E48] [ECDC3610]
03 100,0 [C002FBCA] [DFF32F1A]
04 99,8 [D1148DB9] [2352E9FA]
05 99,8 [130562F9] [446E02BE]
06 99,8 [F0177B00] [6D79FD33]
07 100,0 [FAEEAD0D] [31083E47]
08 99,9 [A6AED984] [2A268EF3]
09 100,0 [C11E3811] [88E7F409]
10 99,8 [AE73DB63] [C7C8E97A]
11 99,9 [E6B9776D] [B83F4CA1]
12 99,8 [340D92A0] [24ADE1D2]
13 99,9 [327B5D03] [41633041]
14 99,7 [CE415D72] [40BC3BA1]
15 100,0 [F9B2F4D7] [50DE4ABD]

Thanks to papa1954