Tags
Language
Tags

King - Bitter Sweet (1985) [Remastered 2007]

Posted By: JET 1
King - Bitter Sweet (1985) [Remastered 2007]

King - Bitter Sweet (1985) [Remastered 2007]
EAC Rip | FLAC (Tracks) +CUE, LOG | 619 MB | Covers Included
Genre: Synth-pop, New Wave | Label: Cherry Red | Catalog Number: CDMRED 328

King grew out of the Reluctant Stereotypes, a highly-regarded but underachieving UK Coventry band, with musicians including former Members' drummer Adrian Lily white (brother of U2 producer Steve). They settled on a distinctive image - multi-coloured Doc Martens, with King himself resplendent in bright suits and cockatoo hair. As well as numerous bonus tracks never released before on CD, this package includes exclusive liner notes written by long-serving Coventry journalist Pete Chambers, who has followed the band's career for many years. There are also many unpublished photographs in the accompanying booklet.

Exact Audio Copy V1.1 from 23. June 2015

EAC extraction logfile from 2. March 2016, 16:12

King / Bitter Sweet

Used drive : ASUS SDRW-08U5S-U Adapter: 1 ID: 0

Read mode : Secure
Utilize accurate stream : Yes
Defeat audio cache : Yes
Make use of C2 pointers : No

Read offset correction : 6
Overread into Lead-In and Lead-Out : No
Fill up missing offset samples with silence : Yes
Delete leading and trailing silent blocks : No
Null samples used in CRC calculations : Yes
Used interface : Native Win32 interface for Win NT & 2000
Gap handling : Appended to previous track

Used output format : User Defined Encoder
Selected bitrate : 320 kBit/s
Quality : High
Add ID3 tag : No
Command line compressor : C:\Program Files (x86)\Exact Audio Copy\Flac\flac.exe
Additional command line options : -8 -V -T "ARTIST=%artist%" -T "TITLE=%title%" -T "ALBUM=%albumtitle%" -T "DATE=%year%" -T "TRACKNUMBER=%tracknr%" -T "TOTALTRACKS=%numtracks%" -T "GENRE=%genre%" -T "ALBUMARTIST=%albumartist%" -T "ALBUM ARTIST=%albumartist%" -T "COMMENT=EAC Secure Mode, Test & Copy, AccurateRip, FLAC -8" %source%


TOC of the extracted CD

Track | Start | Length | Start sector | End sector
––––––––––––––––––––––––––––-
1 | 0:00.00 | 3:38.08 | 0 | 16357
2 | 3:38.08 | 3:07.69 | 16358 | 30451
3 | 6:46.02 | 4:58.58 | 30452 | 52859
4 | 11:44.60 | 3:39.11 | 52860 | 69295
5 | 15:23.71 | 3:50.32 | 69296 | 86577
6 | 19:14.28 | 4:37.49 | 86578 | 107401
7 | 23:52.02 | 4:05.69 | 107402 | 125845
8 | 27:57.71 | 4:29.51 | 125846 | 146071
9 | 32:27.47 | 3:54.68 | 146072 | 163689
10 | 36:22.40 | 4:11.38 | 163690 | 182552
11 | 40:34.03 | 3:26.51 | 182553 | 198053
12 | 44:00.54 | 4:30.15 | 198054 | 218318
13 | 48:30.69 | 5:42.43 | 218319 | 244011
14 | 54:13.37 | 6:43.49 | 244012 | 274285
15 | 60:57.11 | 6:17.66 | 274286 | 302626
16 | 67:15.02 | 4:02.10 | 302627 | 320786
17 | 71:17.12 | 2:30.56 | 320787 | 332092
18 | 73:47.68 | 3:23.04 | 332093 | 347321


Track 1

Filename Z:\Uploads\King - Bitter Sweet (1985) [FLAC] {2007 Remaster with 8 bonus tracks}\01 - Alone Without You.wav

Pre-gap length 0:00:02.00

Peak level 96.6 %
Extraction speed 2.4 X
Track quality 99.9 %
Test CRC 837A5ADF
Copy CRC 837A5ADF
Accurately ripped (confidence 4) [EB969E99] (AR v2)
Copy OK

Track 2

Filename Z:\Uploads\King - Bitter Sweet (1985) [FLAC] {2007 Remaster with 8 bonus tracks}\02 - Platform One.wav

Pre-gap length 0:00:02.00

Peak level 96.6 %
Extraction speed 2.5 X
Track quality 99.9 %
Test CRC 91558448
Copy CRC 91558448
Accurately ripped (confidence 4) [46E1EA58] (AR v2)
Copy OK

Track 3

Filename Z:\Uploads\King - Bitter Sweet (1985) [FLAC] {2007 Remaster with 8 bonus tracks}\03 - I Cringed, I Died, I Felt Hot.wav

Pre-gap length 0:00:02.00

Peak level 96.6 %
Extraction speed 3.1 X
Track quality 99.9 %
Test CRC 11596A92
Copy CRC 11596A92
Accurately ripped (confidence 4) [0560FCCC] (AR v2)
Copy OK

Track 4

Filename Z:\Uploads\King - Bitter Sweet (1985) [FLAC] {2007 Remaster with 8 bonus tracks}\04 - (KFAD) Wait For No One.wav

Pre-gap length 0:00:02.00

Peak level 96.6 %
Extraction speed 3.7 X
Track quality 100.0 %
Test CRC D9163839
Copy CRC D9163839
Accurately ripped (confidence 4) [366BADDA] (AR v2)
Copy OK

Track 5

Filename Z:\Uploads\King - Bitter Sweet (1985) [FLAC] {2007 Remaster with 8 bonus tracks}\05 - 2 M.B..wav

Pre-gap length 0:00:02.00

Peak level 96.6 %
Extraction speed 3.2 X
Track quality 99.9 %
Test CRC E726BA87
Copy CRC E726BA87
Accurately ripped (confidence 4) [7010991E] (AR v2)
Copy OK

Track 6

Filename Z:\Uploads\King - Bitter Sweet (1985) [FLAC] {2007 Remaster with 8 bonus tracks}\06 - These Things.wav

Pre-gap length 0:00:02.00

Peak level 96.6 %
Extraction speed 4.3 X
Track quality 100.0 %
Test CRC 3AE9ADFA
Copy CRC 3AE9ADFA
Accurately ripped (confidence 4) [862EE868] (AR v2)
Copy OK

Track 7

Filename Z:\Uploads\King - Bitter Sweet (1985) [FLAC] {2007 Remaster with 8 bonus tracks}\07 - The Taste Of Your Tears.wav

Pre-gap length 0:00:02.00

Peak level 96.6 %
Extraction speed 4.4 X
Track quality 100.0 %
Test CRC 9E27F94C
Copy CRC 9E27F94C
Accurately ripped (confidence 4) [21E1DC58] (AR v2)
Copy OK

Track 8

Filename Z:\Uploads\King - Bitter Sweet (1985) [FLAC] {2007 Remaster with 8 bonus tracks}\08 - Torture.wav

Pre-gap length 0:00:02.00

Peak level 96.6 %
Extraction speed 4.7 X
Track quality 100.0 %
Test CRC 703AA78B
Copy CRC 703AA78B
Accurately ripped (confidence 4) [E226B5F8] (AR v2)
Copy OK

Track 9

Filename Z:\Uploads\King - Bitter Sweet (1985) [FLAC] {2007 Remaster with 8 bonus tracks}\09 - Sugar Candy Mountain Buddhas.wav

Pre-gap length 0:00:02.00

Peak level 96.6 %
Extraction speed 4.7 X
Track quality 100.0 %
Test CRC DB121304
Copy CRC DB121304
Accurately ripped (confidence 4) [21EAB1D2] (AR v2)
Copy OK

Track 10

Filename Z:\Uploads\King - Bitter Sweet (1985) [FLAC] {2007 Remaster with 8 bonus tracks}\10 - Mind Yer Toes.wav

Pre-gap length 0:00:02.00

Peak level 96.6 %
Extraction speed 4.9 X
Track quality 100.0 %
Test CRC 4214B93C
Copy CRC 4214B93C
Accurately ripped (confidence 4) [65661670] (AR v2)
Copy OK

Track 11

Filename Z:\Uploads\King - Bitter Sweet (1985) [FLAC] {2007 Remaster with 8 bonus tracks}\11 - Crazy Party.wav

Pre-gap length 0:00:02.00

Peak level 96.6 %
Extraction speed 4.9 X
Track quality 100.0 %
Test CRC 0023DF12
Copy CRC 0023DF12
Accurately ripped (confidence 4) [DC00D1CA] (AR v2)
Copy OK

Track 12

Filename Z:\Uploads\King - Bitter Sweet (1985) [FLAC] {2007 Remaster with 8 bonus tracks}\12 - Alone Without You (Scorcher Mix).wav

Pre-gap length 0:00:02.00

Peak level 96.6 %
Extraction speed 5.3 X
Track quality 100.0 %
Test CRC 1EC02F51
Copy CRC 1EC02F51
Accurately ripped (confidence 4) [1263C9FB] (AR v2)
Copy OK

Track 13

Filename Z:\Uploads\King - Bitter Sweet (1985) [FLAC] {2007 Remaster with 8 bonus tracks}\13 - The Taste Of Your Tears (Breaker Heard CD Mix).wav

Pre-gap length 0:00:02.00

Peak level 96.6 %
Extraction speed 5.6 X
Track quality 100.0 %
Test CRC 4AC6F19B
Copy CRC 4AC6F19B
Accurately ripped (confidence 4) [8F7C5ECA] (AR v2)
Copy OK

Track 14

Filename Z:\Uploads\King - Bitter Sweet (1985) [FLAC] {2007 Remaster with 8 bonus tracks}\14 - Torture (Passion Fruit Mix).wav

Pre-gap length 0:00:02.00

Peak level 96.6 %
Extraction speed 6.0 X
Track quality 100.0 %
Test CRC 755B282F
Copy CRC 755B282F
Accurately ripped (confidence 4) [DC36D210] (AR v2)
Copy OK

Track 15

Filename Z:\Uploads\King - Bitter Sweet (1985) [FLAC] {2007 Remaster with 8 bonus tracks}\15 - Love And Pride (USA Summer Mix).wav

Pre-gap length 0:00:02.00

Peak level 97.1 %
Extraction speed 6.2 X
Track quality 100.0 %
Test CRC 3C5FBAE0
Copy CRC 3C5FBAE0
Accurately ripped (confidence 4) [685C1C8A] (AR v2)
Copy OK

Track 16

Filename Z:\Uploads\King - Bitter Sweet (1985) [FLAC] {2007 Remaster with 8 bonus tracks}\16 - I Kissed The Spikey Fridge (Rock Hard Mix).wav

Pre-gap length 0:00:02.00

Peak level 96.6 %
Extraction speed 6.1 X
Track quality 100.0 %
Test CRC 686B7582
Copy CRC 686B7582
Accurately ripped (confidence 4) [1687DB71] (AR v2)
Copy OK

Track 17

Filename Z:\Uploads\King - Bitter Sweet (1985) [FLAC] {2007 Remaster with 8 bonus tracks}\17 - These Things (Reprise).wav

Pre-gap length 0:00:02.00

Peak level 96.6 %
Extraction speed 4.3 X
Track quality 99.9 %
Test CRC D9418DB8
Copy CRC D9418DB8
Accurately ripped (confidence 4) [54CE01DF] (AR v2)
Copy OK

Track 18

Filename Z:\Uploads\King - Bitter Sweet (1985) [FLAC] {2007 Remaster with 8 bonus tracks}\18 - Alone Without You (Reprise).wav

Pre-gap length 0:00:02.00

Peak level 96.6 %
Extraction speed 6.1 X
Track quality 100.0 %
Test CRC 5B352FAD
Copy CRC 5B352FAD
Accurately ripped (confidence 4) [126656A4] (AR v2)
Copy OK


All tracks accurately ripped

No errors occurred

End of status report

–– CUETools DB Plugin V2.1.6

[CTDB TOCID: Vl3N9.UlRbg7mISzUjVjmyJwcjI-] found
Submit result: Vl3N9.UlRbg7mISzUjVjmyJwcjI- has been confirmed
Track | CTDB Status
1 | (3/3) Accurately ripped
2 | (3/3) Accurately ripped
3 | (3/3) Accurately ripped
4 | (3/3) Accurately ripped
5 | (3/3) Accurately ripped
6 | (3/3) Accurately ripped
7 | (3/3) Accurately ripped
8 | (3/3) Accurately ripped
9 | (3/3) Accurately ripped
10 | (3/3) Accurately ripped
11 | (3/3) Accurately ripped
12 | (3/3) Accurately ripped
13 | (3/3) Accurately ripped
14 | (3/3) Accurately ripped
15 | (3/3) Accurately ripped
16 | (3/3) Accurately ripped
17 | (3/3) Accurately ripped
18 | (3/3) Accurately ripped


==== Log checksum 2D2E521BA0DC1549CEB63AE710F413659DA05E789410D18CCF6C9DB796E6E1ED ====


Tracklist:
1 Alone Without You 3:38
2 Platform One 3:07
3 I Cringed, I Died, I Felt Hot 4:58
4 (KFAD) Wait For No-One 3:39
5 2 M.B. 3:50
6 These Things 4:37
7 The Taste Of Your Tears 4:05
8 Torture 4:29
9 Sugar Candy Mountain Buddhas 3:54
10 Mind Yer Toes 4:11
11 Crazy Party 3:26
12 Alone Without You (Scorcher Mix) 4:30
13 The Taste Of Your Tears (Breaker Heart CD Mix) 5:42
14 Torture (Passion Fruit Mix) 6:43
15 Love And Pride (USA Summer Mix) 6:17
16 I Kissed The Spikey Fridge (Rock Hard Mix) 4:02
17 These Things (Reprise) 2:30
18 Alone Without You (Reprise) 3:23