Subcategories

King Crimson - Live in Vienna (2017)

Posted By: Pisulik
King Crimson - Live in Vienna (2017)

King Crimson - Live in Vienna (2017)
EAC Rip | FLAC (Tracks) +cue, log - 1.28 GB | MP3 CBR 320 kbps - 515 MB | 03:45:09
Progressive Rock, Art Rock, Experimental | Label: Wowow Entertainment

Japan exclusive upgraded package of live works from King Crimson. Disc 1 and 2 feature their concerts held on November 31 and December 1, 2016 in Vienna plus bonus track(s). Disc 3 includes ten live tracks total selected from their concerts in Japan in 2015.

TRACKLIST

CD1

01. Walk On: Monk Morph Music of the Chamber
02. The Hell Hounds of Krim
03. Pictures of a City
04. Dawn Song
05. Suitable Grounds for the Blues
06. VROOOM
07. The ConstruKction of Light
08. The Court of the Crimson King
09. The Letters
10. Sailor’s Tale
11. Interlude
12. Radical Action II
13. Level Five
14. Fairy Dust of the Drumsons
15. Peace
16. Cirkus

Exact Audio Copy V1.3 from 2. September 2016

EAC extraction logfile from 4. October 2017, 0:04

King Crimson / Live in Vienna

Used drive : PIONEER BD-RW BDR-XD05 Adapter: 1 ID: 0

Read mode : Secure
Utilize accurate stream : Yes
Defeat audio cache : Yes
Make use of C2 pointers : No

Read offset correction : 667
Overread into Lead-In and Lead-Out : No
Fill up missing offset samples with silence : Yes
Delete leading and trailing silent blocks : No
Null samples used in CRC calculations : Yes
Used interface : Native Win32 interface for Win NT & 2000
Gap handling : Appended to previous track

Used output format : User Defined Encoder
Selected bitrate : 128 kBit/s
Quality : High
Add ID3 tag : No
Command line compressor : C:\Program Files (x86)\Exact Audio Copy\Flac\flac.exe
Additional command line options : -8 -V -T "ARTIST=%artist%" -T "TITLE=%title%" -T "ALBUM=%albumtitle%" -T "DATE=%year%" -T "TRACKNUMBER=%tracknr%" -T "GENRE=%genre%" -T "PERFORMER=%albuminterpret%" -T "COMPOSER=%composer%" %haslyrics%–tag-from-file=LYRICS="%lyricsfile%"%haslyrics% -T "ALBUMARTIST=%albumartist%" -T "DISCNUMBER=%cdnumber%" -T "TOTALDISCS=%totalcds%" -T "TOTALTRACKS=%numtracks%" -T "COMMENT=%comment%" %source% -o %dest%


TOC of the extracted CD

Track | Start | Length | Start sector | End sector
––––––––––––––––––––––––––––-
1 | 0:00.00 | 2:31.09 | 0 | 11333
2 | 2:31.09 | 3:41.24 | 11334 | 27932
3 | 6:12.33 | 8:39.20 | 27933 | 66877
4 | 14:51.53 | 2:19.02 | 66878 | 77304
5 | 17:10.55 | 4:47.14 | 77305 | 98843
6 | 21:57.69 | 5:14.24 | 98844 | 122417
7 | 27:12.18 | 6:33.41 | 122418 | 151933
8 | 33:45.59 | 7:19.54 | 151934 | 184912
9 | 41:05.38 | 6:15.39 | 184913 | 213076
10 | 47:21.02 | 6:19.24 | 213077 | 241525
11 | 53:40.26 | 2:44.12 | 241526 | 253837
12 | 56:24.38 | 2:16.10 | 253838 | 264047
13 | 58:40.48 | 7:20.41 | 264048 | 297088
14 | 66:01.14 | 0:53.35 | 297089 | 301098
15 | 66:54.49 | 1:56.04 | 301099 | 309802
16 | 68:50.53 | 7:29.59 | 309803 | 343536


Track 1

Filename F:\Music\King Crimson - Live in Vienna (Japan CD)\Disc 1\101 - Walk On- Monk Morph Music of the Chamber.wav

Pre-gap length 0:00:02.00

Peak level 44.1 %
Extraction speed 2.6 X
Track quality 100.0 %
Test CRC 55BB72BD
Copy CRC 55BB72BD
Track not present in AccurateRip database
Copy OK

Track 2

Filename F:\Music\King Crimson - Live in Vienna (Japan CD)\Disc 1\102 - The Hell Hounds of Krim.wav

Peak level 54.1 %
Extraction speed 3.0 X
Track quality 100.0 %
Test CRC 49E20A4F
Copy CRC 49E20A4F
Track not present in AccurateRip database
Copy OK

Track 3

Filename F:\Music\King Crimson - Live in Vienna (Japan CD)\Disc 1\103 - Pictures of a City.wav

Peak level 78.5 %
Extraction speed 3.5 X
Track quality 100.0 %
Test CRC 6B8025A1
Copy CRC 6B8025A1
Track not present in AccurateRip database
Copy OK

Track 4

Filename F:\Music\King Crimson - Live in Vienna (Japan CD)\Disc 1\104 - Dawn Song.wav

Peak level 55.1 %
Extraction speed 3.2 X
Track quality 100.0 %
Test CRC A0240168
Copy CRC A0240168
Track not present in AccurateRip database
Copy OK

Track 5

Filename F:\Music\King Crimson - Live in Vienna (Japan CD)\Disc 1\105 - Suitable Grounds for the Blues.wav

Peak level 77.4 %
Extraction speed 3.5 X
Track quality 99.9 %
Test CRC 27948EA0
Copy CRC 27948EA0
Track not present in AccurateRip database
Copy OK

Track 6

Filename F:\Music\King Crimson - Live in Vienna (Japan CD)\Disc 1\106 - VROOOM.wav

Peak level 91.9 %
Extraction speed 4.1 X
Track quality 100.0 %
Test CRC D7929669
Copy CRC D7929669
Track not present in AccurateRip database
Copy OK

Track 7

Filename F:\Music\King Crimson - Live in Vienna (Japan CD)\Disc 1\107 - The ConstruKction of Light.wav

Peak level 78.9 %
Extraction speed 4.4 X
Track quality 100.0 %
Test CRC C26D873B
Copy CRC C26D873B
Track not present in AccurateRip database
Copy OK

Track 8

Filename F:\Music\King Crimson - Live in Vienna (Japan CD)\Disc 1\108 - The Court of the Crimson King.wav

Peak level 80.7 %
Extraction speed 4.8 X
Track quality 100.0 %
Test CRC 5B2FCC94
Copy CRC 5B2FCC94
Track not present in AccurateRip database
Copy OK

Track 9

Filename F:\Music\King Crimson - Live in Vienna (Japan CD)\Disc 1\109 - The Letters.wav

Peak level 77.9 %
Extraction speed 4.9 X
Track quality 100.0 %
Test CRC 3B3550B2
Copy CRC 3B3550B2
Track not present in AccurateRip database
Copy OK

Track 10

Filename F:\Music\King Crimson - Live in Vienna (Japan CD)\Disc 1\110 - Sailor’s Tale.wav

Peak level 79.6 %
Extraction speed 5.2 X
Track quality 100.0 %
Test CRC 34F6068F
Copy CRC 34F6068F
Track not present in AccurateRip database
Copy OK

Track 11

Filename F:\Music\King Crimson - Live in Vienna (Japan CD)\Disc 1\111 - Interlude.wav

Peak level 58.4 %
Extraction speed 4.7 X
Track quality 100.0 %
Test CRC 86BD9ACD
Copy CRC 86BD9ACD
Track not present in AccurateRip database
Copy OK

Track 12

Filename F:\Music\King Crimson - Live in Vienna (Japan CD)\Disc 1\112 - Radical Action II.wav

Peak level 79.4 %
Extraction speed 3.8 X
Track quality 99.9 %
Test CRC 3C86DF62
Copy CRC 3C86DF62
Track not present in AccurateRip database
Copy OK

Track 13

Filename F:\Music\King Crimson - Live in Vienna (Japan CD)\Disc 1\113 - Level Five.wav

Peak level 79.4 %
Extraction speed 5.2 X
Track quality 99.9 %
Test CRC 83DAA96F
Copy CRC 83DAA96F
Track not present in AccurateRip database
Copy OK

Track 14

Filename F:\Music\King Crimson - Live in Vienna (Japan CD)\Disc 1\114 - Fairy Dust of the Drumsons.wav

Peak level 19.4 %
Extraction speed 2.5 X
Track quality 99.8 %
Test CRC B4F12A71
Copy CRC B4F12A71
Track not present in AccurateRip database
Copy OK

Track 15

Filename F:\Music\King Crimson - Live in Vienna (Japan CD)\Disc 1\115 - Peace.wav

Peak level 73.3 %
Extraction speed 4.5 X
Track quality 100.0 %
Test CRC B39E98E1
Copy CRC B39E98E1
Track not present in AccurateRip database
Copy OK

Track 16

Filename F:\Music\King Crimson - Live in Vienna (Japan CD)\Disc 1\116 - Cirkus.wav

Peak level 99.3 %
Extraction speed 5.9 X
Track quality 100.0 %
Test CRC 79F351C8
Copy CRC 79F351C8
Track not present in AccurateRip database
Copy OK


None of the tracks are present in the AccurateRip database

No errors occurred

End of status report

–– CUETools DB Plugin V2.1.6

[CTDB TOCID: AsVaq5uZEYru22oTZvrZ.s2YJds-] found
Submit result: AsVaq5uZEYru22oTZvrZ.s2YJds- has been confirmed
Track | CTDB Status
1 | (9/9) Accurately ripped
2 | (9/9) Accurately ripped
3 | (9/9) Accurately ripped
4 | (9/9) Accurately ripped
5 | (9/9) Accurately ripped
6 | (9/9) Accurately ripped
7 | (9/9) Accurately ripped
8 | (9/9) Accurately ripped
9 | (9/9) Accurately ripped
10 | (9/9) Accurately ripped
11 | (9/9) Accurately ripped
12 | (9/9) Accurately ripped
13 | (9/9) Accurately ripped
14 | (9/9) Accurately ripped
15 | (9/9) Accurately ripped
16 | (9/9) Accurately ripped


==== Log checksum 13320FFFB56583DFEC58570CD38E3B6C148B49F18652ACDBA3A98A3016503ABA ====


CD2

01. Indiscipline
02. Epitaph
03. Easy Money
04. Devil Dogs of Tessellation Row
05. Red
06. Meltdown
07. Larks’ Tongues in Aspic, Part Two
08. Starless
09. Heroes
10. 21st Century Schizoid Man

Exact Audio Copy V1.3 from 2. September 2016

EAC extraction logfile from 4. October 2017, 0:43

King Crimson / Live in Vienna

Used drive : PIONEER BD-RW BDR-XD05 Adapter: 1 ID: 0

Read mode : Secure
Utilize accurate stream : Yes
Defeat audio cache : Yes
Make use of C2 pointers : No

Read offset correction : 667
Overread into Lead-In and Lead-Out : No
Fill up missing offset samples with silence : Yes
Delete leading and trailing silent blocks : No
Null samples used in CRC calculations : Yes
Used interface : Native Win32 interface for Win NT & 2000
Gap handling : Appended to previous track

Used output format : User Defined Encoder
Selected bitrate : 128 kBit/s
Quality : High
Add ID3 tag : No
Command line compressor : C:\Program Files (x86)\Exact Audio Copy\Flac\flac.exe
Additional command line options : -8 -V -T "ARTIST=%artist%" -T "TITLE=%title%" -T "ALBUM=%albumtitle%" -T "DATE=%year%" -T "TRACKNUMBER=%tracknr%" -T "GENRE=%genre%" -T "PERFORMER=%albuminterpret%" -T "COMPOSER=%composer%" %haslyrics%–tag-from-file=LYRICS="%lyricsfile%"%haslyrics% -T "ALBUMARTIST=%albumartist%" -T "DISCNUMBER=%cdnumber%" -T "TOTALDISCS=%totalcds%" -T "TOTALTRACKS=%numtracks%" -T "COMMENT=%comment%" %source% -o %dest%


TOC of the extracted CD

Track | Start | Length | Start sector | End sector
––––––––––––––––––––––––––––-
1 | 0:00.00 | 9:07.25 | 0 | 41049
2 | 9:07.25 | 8:46.36 | 41050 | 80535
3 | 17:53.61 | 10:07.36 | 80536 | 126096
4 | 28:01.22 | 3:03.52 | 126097 | 139873
5 | 31:04.74 | 6:42.18 | 139874 | 170041
6 | 37:47.17 | 4:15.05 | 170042 | 189171
7 | 42:02.22 | 7:01.26 | 189172 | 220772
8 | 49:03.48 | 12:56.28 | 220773 | 279000
9 | 62:00.01 | 4:27.07 | 279001 | 299032
10 | 66:27.08 | 12:08.70 | 299033 | 353702


Track 1

Filename F:\Music\King Crimson - Live in Vienna (Japan CD)\Disc 2\201 - Indiscipline.wav

Pre-gap length 0:00:02.00

Peak level 92.1 %
Extraction speed 3.3 X
Track quality 100.0 %
Test CRC DCF1C33C
Copy CRC DCF1C33C
Track not present in AccurateRip database
Copy OK

Track 2

Filename F:\Music\King Crimson - Live in Vienna (Japan CD)\Disc 2\202 - Epitaph.wav

Peak level 99.3 %
Extraction speed 3.8 X
Track quality 100.0 %
Test CRC 1B3F5E6C
Copy CRC 1B3F5E6C
Track not present in AccurateRip database
Copy OK

Track 3

Filename F:\Music\King Crimson - Live in Vienna (Japan CD)\Disc 2\203 - Easy Money.wav

Peak level 96.3 %
Extraction speed 4.3 X
Track quality 100.0 %
Test CRC 887AFCB3
Copy CRC 887AFCB3
Track not present in AccurateRip database
Copy OK

Track 4

Filename F:\Music\King Crimson - Live in Vienna (Japan CD)\Disc 2\204 - Devil Dogs of Tessellation Row.wav

Peak level 73.1 %
Extraction speed 4.0 X
Track quality 100.0 %
Test CRC F777939D
Copy CRC F777939D
Track not present in AccurateRip database
Copy OK

Track 5

Filename F:\Music\King Crimson - Live in Vienna (Japan CD)\Disc 2\205 - Red.wav

Peak level 100.0 %
Extraction speed 4.6 X
Track quality 100.0 %
Test CRC 1ED1906C
Copy CRC 1ED1906C
Track not present in AccurateRip database
Copy OK

Track 6

Filename F:\Music\King Crimson - Live in Vienna (Japan CD)\Disc 2\206 - Meltdown.wav

Peak level 87.6 %
Extraction speed 4.6 X
Track quality 100.0 %
Test CRC E21468C6
Copy CRC E21468C6
Track not present in AccurateRip database
Copy OK

Track 7

Filename F:\Music\King Crimson - Live in Vienna (Japan CD)\Disc 2\207 - Larks’ Tongues in Aspic, Part Two.wav

Peak level 79.2 %
Extraction speed 4.9 X
Track quality 100.0 %
Test CRC A17B8DAD
Copy CRC A17B8DAD
Track not present in AccurateRip database
Copy OK

Track 8

Filename F:\Music\King Crimson - Live in Vienna (Japan CD)\Disc 2\208 - Starless.wav

Peak level 89.9 %
Extraction speed 5.5 X
Track quality 100.0 %
Test CRC 8B1E2A6D
Copy CRC 8B1E2A6D
Track not present in AccurateRip database
Copy OK

Track 9

Filename F:\Music\King Crimson - Live in Vienna (Japan CD)\Disc 2\209 - Heroes.wav

Peak level 100.0 %
Extraction speed 5.1 X
Track quality 100.0 %
Test CRC 1EB75A5B
Copy CRC 1EB75A5B
Track not present in AccurateRip database
Copy OK

Track 10

Filename F:\Music\King Crimson - Live in Vienna (Japan CD)\Disc 2\210 - 21st Century Schizoid Man.wav

Peak level 100.0 %
Extraction speed 6.1 X
Track quality 100.0 %
Test CRC EE0F78E0
Copy CRC EE0F78E0
Track not present in AccurateRip database
Copy OK


None of the tracks are present in the AccurateRip database

No errors occurred

End of status report

–– CUETools DB Plugin V2.1.6

[CTDB TOCID: 9f.ZYDOrcX6M6A7Ejx29VcEAm_4-] found
Submit result: 9f.ZYDOrcX6M6A7Ejx29VcEAm_4- has been confirmed
Track | CTDB Status
1 | (9/9) Accurately ripped
2 | (9/9) Accurately ripped
3 | (9/9) Accurately ripped
4 | (9/9) Accurately ripped
5 | (9/9) Accurately ripped
6 | (9/9) Accurately ripped
7 | (9/9) Accurately ripped
8 | (9/9) Accurately ripped
9 | (9/9) Accurately ripped
10 | (9/9) Accurately ripped


==== Log checksum DE3610A82C2D348372013CA2426A2EEF88CAA5FD11DF3DEC193A57C36957B915 ====


CD 3 (Bonus Disc- Live in Japan 2015)

01. Walk On: Soundscapes
02. Larks’ Tongues in Aspic, Part One
03. One More Red Nightmare
04. A Scarcity of Miracles
05. Banshee Legs Bell Hassle
06. Radical Action (To Unseat the Hold of Monkey Mind)
07. Meltdown
08. Radical Action II
09. Peace
10. The Talking Drum
11. 21st Century Schizoid Man
12. Islands (Live in Chicago 2017)

Exact Audio Copy V1.3 from 2. September 2016

EAC extraction logfile from 4. October 2017, 1:21

King Crimson / Live in Vienna (Bonus Disc: Live in Japan 2015)

Used drive : PIONEER BD-RW BDR-XD05 Adapter: 1 ID: 0

Read mode : Secure
Utilize accurate stream : Yes
Defeat audio cache : Yes
Make use of C2 pointers : No

Read offset correction : 667
Overread into Lead-In and Lead-Out : No
Fill up missing offset samples with silence : Yes
Delete leading and trailing silent blocks : No
Null samples used in CRC calculations : Yes
Used interface : Native Win32 interface for Win NT & 2000
Gap handling : Appended to previous track

Used output format : User Defined Encoder
Selected bitrate : 128 kBit/s
Quality : High
Add ID3 tag : No
Command line compressor : C:\Program Files (x86)\Exact Audio Copy\Flac\flac.exe
Additional command line options : -8 -V -T "ARTIST=%artist%" -T "TITLE=%title%" -T "ALBUM=%albumtitle%" -T "DATE=%year%" -T "TRACKNUMBER=%tracknr%" -T "GENRE=%genre%" -T "PERFORMER=%albuminterpret%" -T "COMPOSER=%composer%" %haslyrics%–tag-from-file=LYRICS="%lyricsfile%"%haslyrics% -T "ALBUMARTIST=%albumartist%" -T "DISCNUMBER=%cdnumber%" -T "TOTALDISCS=%totalcds%" -T "TOTALTRACKS=%numtracks%" -T "COMMENT=%comment%" %source% -o %dest%


TOC of the extracted CD

Track | Start | Length | Start sector | End sector
––––––––––––––––––––––––––––-
1 | 0:00.00 | 6:53.22 | 0 | 30996
2 | 6:53.22 | 10:22.03 | 30997 | 77649
3 | 17:15.25 | 6:15.00 | 77650 | 105774
4 | 23:30.25 | 6:51.36 | 105775 | 136635
5 | 30:21.61 | 1:50.62 | 136636 | 144947
6 | 32:12.48 | 3:19.61 | 144948 | 159933
7 | 35:32.34 | 4:22.43 | 159934 | 179626
8 | 39:55.02 | 2:44.55 | 179627 | 191981
9 | 42:39.57 | 2:08.09 | 191982 | 201590
10 | 44:47.66 | 3:52.46 | 201591 | 219036
11 | 48:40.37 | 11:53.25 | 219037 | 272536
12 | 60:33.62 | 9:37.03 | 272537 | 315814


Track 1

Filename F:\Music\King Crimson - Live in Vienna (Japanese CD)\Disc 3 (Bonus Disc- Live in Japan 2015)\301 - Walk On- Soundscapes.wav

Pre-gap length 0:00:02.00

Peak level 44.6 %
Extraction speed 2.9 X
Track quality 99.9 %
Test CRC 3A3FEABA
Copy CRC 3A3FEABA
Track not present in AccurateRip database
Copy OK

Track 2

Filename F:\Music\King Crimson - Live in Vienna (Japanese CD)\Disc 3 (Bonus Disc- Live in Japan 2015)\302 - Larks’ Tongues in Aspic, Part One.wav

Peak level 100.0 %
Extraction speed 3.7 X
Track quality 100.0 %
Test CRC FB31F5F9
Copy CRC FB31F5F9
Track not present in AccurateRip database
Copy OK

Track 3

Filename F:\Music\King Crimson - Live in Vienna (Japanese CD)\Disc 3 (Bonus Disc- Live in Japan 2015)\303 - One More Red Nightmare.wav

Peak level 100.0 %
Extraction speed 4.0 X
Track quality 100.0 %
Test CRC DAAEE32E
Copy CRC DAAEE32E
Track not present in AccurateRip database
Copy OK

Track 4

Filename F:\Music\King Crimson - Live in Vienna (Japanese CD)\Disc 3 (Bonus Disc- Live in Japan 2015)\304 - A Scarcity of Miracles.wav

Peak level 100.0 %
Extraction speed 4.4 X
Track quality 100.0 %
Test CRC 9F2D2CD0
Copy CRC 9F2D2CD0
Track not present in AccurateRip database
Copy OK

Track 5

Filename F:\Music\King Crimson - Live in Vienna (Japanese CD)\Disc 3 (Bonus Disc- Live in Japan 2015)\305 - Banshee Legs Bell Hassle.wav

Peak level 78.6 %
Extraction speed 3.7 X
Track quality 100.0 %
Test CRC 39F2C0DF
Copy CRC 39F2C0DF
Track not present in AccurateRip database
Copy OK

Track 6

Filename F:\Music\King Crimson - Live in Vienna (Japanese CD)\Disc 3 (Bonus Disc- Live in Japan 2015)\306 - Radical Action (To Unseat the Hold of Monkey Mind).wav

Peak level 100.0 %
Extraction speed 3.7 X
Track quality 99.9 %
Test CRC 049FAF2D
Copy CRC 049FAF2D
Track not present in AccurateRip database
Copy OK

Track 7

Filename F:\Music\King Crimson - Live in Vienna (Japanese CD)\Disc 3 (Bonus Disc- Live in Japan 2015)\307 - Meltdown.wav

Peak level 100.0 %
Extraction speed 4.0 X
Track quality 99.9 %
Test CRC 84A5C590
Copy CRC 84A5C590
Track not present in AccurateRip database
Copy OK

Track 8

Filename F:\Music\King Crimson - Live in Vienna (Japanese CD)\Disc 3 (Bonus Disc- Live in Japan 2015)\308 - Radical Action II.wav

Peak level 100.0 %
Extraction speed 4.3 X
Track quality 100.0 %
Test CRC 2F6183D5
Copy CRC 2F6183D5
Track not present in AccurateRip database
Copy OK

Track 9

Filename F:\Music\King Crimson - Live in Vienna (Japanese CD)\Disc 3 (Bonus Disc- Live in Japan 2015)\309 - Peace.wav

Peak level 41.8 %
Extraction speed 3.4 X
Track quality 99.9 %
Test CRC B7C59CFE
Copy CRC B7C59CFE
Track not present in AccurateRip database
Copy OK

Track 10

Filename F:\Music\King Crimson - Live in Vienna (Japanese CD)\Disc 3 (Bonus Disc- Live in Japan 2015)\310 - The Talking Drum.wav

Peak level 100.0 %
Extraction speed 4.8 X
Track quality 100.0 %
Test CRC D6CD78C6
Copy CRC D6CD78C6
Track not present in AccurateRip database
Copy OK

Track 11

Filename F:\Music\King Crimson - Live in Vienna (Japanese CD)\Disc 3 (Bonus Disc- Live in Japan 2015)\311 - 21st Century Schizoid Man.wav

Peak level 100.0 %
Extraction speed 5.5 X
Track quality 100.0 %
Test CRC F232752A
Copy CRC F232752A
Track not present in AccurateRip database
Copy OK

Track 12

Filename F:\Music\King Crimson - Live in Vienna (Japanese CD)\Disc 3 (Bonus Disc- Live in Japan 2015)\312 - Islands (Live in Chicago 2017).wav

Peak level 100.0 %
Extraction speed 5.5 X
Track quality 99.9 %
Test CRC 0745E58D
Copy CRC 0745E58D
Track not present in AccurateRip database
Copy OK


None of the tracks are present in the AccurateRip database

No errors occurred

End of status report

–– CUETools DB Plugin V2.1.6

[CTDB TOCID: TDhfHlb4YW20LgSKCHSd5t_xTbg-] found
Submit result: TDhfHlb4YW20LgSKCHSd5t_xTbg- has been confirmed
Track | CTDB Status
1 | (9/9) Accurately ripped
2 | (9/9) Accurately ripped
3 | (9/9) Accurately ripped
4 | (9/9) Accurately ripped
5 | (9/9) Accurately ripped
6 | (9/9) Accurately ripped
7 | (9/9) Accurately ripped
8 | (9/9) Accurately ripped
9 | (9/9) Accurately ripped
10 | (9/9) Accurately ripped
11 | (9/9) Accurately ripped
12 | (7/9) Accurately ripped


==== Log checksum 6EA6718E32032F5A501092B367388108EFDB38EFEBE4A4F84650B925147C8D34 ====


All thanks go to the original releaser