Tags
Language
Tags

Kiri Te Kanawa - Best Of Kiri Te Kanawa: Mozart, Wagner, Puccini, Schumann, Legrand (1999)

Posted By: Designol
Kiri Te Kanawa - Best Of Kiri Te Kanawa: Mozart, Wagner, Puccini, Schumann, Legrand (1999)

Kiri Te Kanawa - Best Of Kiri Te Kanawa: Mozart, Wagner, Puccini, Schumann, Legrand (1999)
EAC | FLAC | Tracks (Cue&Log) ~ 224 Mb | Mp3 (CBR320) ~ 129 Mb | Scans ~ 64 Mb
Genre: Classical, Vocal, Opera | Label: Erato | # 3484-26539-2 | Time: 00:56:31

Dame Kiri Te Kanawa's magnificent soprano breathes a fresh spirit into operatic favorites by Mozart, Puccini and Wagner in this collection of arias and other songs. Per Piate, Ben Mio, O Mio Bambino Caro and Vissi D'Arte are joined by Gustav Holst's In the Bleak Midwinter and the pop classic "The Windmills of Your Mind," among others. A diverse and exciting collection from one of the finest voices of our age.

Review by Heather Phares, Allmusic.com

Whether this is truly the "best" of Kiri Te Kanawa's recordings is a moot point; suffice it to say that it's pretty good. Fiordiligi's two arias from Così are splendidly sung and thought out–what a fine Mozart singer she is! The Bohème excerpts are sweet (and Richard Leech is a nice Rodolfo), but they'll hardly erase memories of your favorite Mimi. The same can be said for Dame Kiri's Tosca, but her "O mio babbino caro" remains world class. The two excerpts from Tannhäuser are beautifully done, while a song each by Schumann and Holst are nicely intimate. And if you can stomach Michel Legrand's "The Windmills of Your Mind," you're stronger than most people. Kiri's fans won't be disappointed.

Review by Robert Levine, Amazon.com

Kiri Te Kanawa - Best Of Kiri Te Kanawa: Mozart, Wagner, Puccini, Schumann, Legrand (1999)



Tracklist:

01. Mozart - Cosi Fan Tutte- Temerari! (01:02)
02. Mozart - Cosi Fan Tutte- Come Scoglio Immoto Resta (04:27)
03. Mozart - Cosi Fan Tutte- Ei Parte… (01:49)
04. Mozart - Cosi Fan Tutte- Per Pieta, Ben Mio (08:07)

05. Puccini - La Boheme- Si, Mi Chiamano Mimi (05:43)
06. Puccini - La Boheme- O Soave Fanciulla (04:14)
07. Puccini - La Boheme- Donde Lieta Usci (03:25)
08. Puccini - La Boheme- Sole E Amore (01:54)
09. Puccini - Tosca- Vissi D' Arte (03:04)
10. Puccini - Gianni Schicchi- O Mio Babbino Caro (02:18)

11. Wagner - Tannhauser- Dich, Teure Halle (04:53)
12. Wagner - Tannhauser- Allmacht 'ge Jungfrau (05:53)

13. Schumann - Du Bist Wie Eine Blume (01:46)

14. Holst, Rossetti - In The Bleak Midwinter (04:24)

15. Michael Legrand - The Windmills Of Your Mind (Les Moulins De Mon Coeur) (03:26)


Exact Audio Copy V1.0 beta 4 from 7. December 2014

EAC extraction logfile from 13. March 2016, 11:25

Various Artists / Kiri Te Kanawa - Best Of Kiri Te Kanawa

Used drive : TSSTcorpCDDVDW SH-224DB Adapter: 1 ID: 0

Read mode : Secure
Utilize accurate stream : Yes
Defeat audio cache : Yes
Make use of C2 pointers : No

Read offset correction : 6
Overread into Lead-In and Lead-Out : No
Fill up missing offset samples with silence : Yes
Delete leading and trailing silent blocks : No
Null samples used in CRC calculations : Yes
Used interface : Native Win32 interface for Win NT & 2000
Gap handling : Appended to previous track

Used output format : User Defined Encoder
Selected bitrate : 896 kBit/s
Quality : High
Add ID3 tag : No
Command line compressor : C:\Program Files\Exact Audio Copy\Flac\flac.exe
Additional command line options : -6 -V -T "ARTIST=%artist%" -T "TITLE=%title%" -T "ALBUM=%albumtitle%" -T "DATE=%year%" -T "TRACKNUMBER=%tracknr%" -T "GENRE=%genre%" -T "COMMENT=%comment%" %source% -o %dest%


TOC of the extracted CD

Track | Start | Length | Start sector | End sector
––––––––––––––––––––––––––––-
1 | 0:00.00 | 1:02.40 | 0 | 4689
2 | 1:02.40 | 4:27.20 | 4690 | 24734
3 | 5:29.60 | 1:49.62 | 24735 | 32971
4 | 7:19.47 | 8:07.48 | 32972 | 69544
5 | 15:27.20 | 5:43.37 | 69545 | 95306
6 | 21:10.57 | 4:14.33 | 95307 | 114389
7 | 25:25.15 | 3:25.52 | 114390 | 129816
8 | 28:50.67 | 1:54.00 | 129817 | 138366
9 | 30:44.67 | 3:04.63 | 138367 | 152229
10 | 33:49.55 | 2:18.07 | 152230 | 162586
11 | 36:07.62 | 4:53.30 | 162587 | 184591
12 | 41:01.17 | 5:53.25 | 184592 | 211091
13 | 46:54.42 | 1:46.00 | 211092 | 219041
14 | 48:40.42 | 4:24.50 | 219042 | 238891
15 | 53:05.17 | 3:26.10 | 238892 | 254351


Track 1

Filename C:\New Folder\01 - Mozart - Cosi Fan Tutte- Temerari!.wav

Pre-gap length 0:00:02.00

Peak level 96.7 %
Extraction speed 1.2 X
Track quality 100.0 %
Test CRC F43F0A6B
Copy CRC F43F0A6B
Accurately ripped (confidence 3) [BAC23EE7] (AR v2)
Copy OK

Track 2

Filename C:\New Folder\02 - Mozart - Cosi Fan Tutte- Come Scoglio Immoto Resta.wav

Peak level 87.2 %
Extraction speed 1.6 X
Track quality 99.9 %
Test CRC CD09E891
Copy CRC CD09E891
Accurately ripped (confidence 3) [6A5381EA] (AR v2)
Copy OK

Track 3

Filename C:\New Folder\03 - Mozart - Cosi Fan Tutte- Ei Parte….wav

Pre-gap length 0:00:02.68

Peak level 66.3 %
Extraction speed 1.7 X
Track quality 100.0 %
Test CRC 7D0F09CD
Copy CRC 7D0F09CD
Accurately ripped (confidence 4) [2AE49295] (AR v2)
Copy OK

Track 4

Filename C:\New Folder\04 - Mozart - Cosi Fan Tutte- Per Pieta, Ben Mio.wav

Pre-gap length 0:00:01.40

Peak level 90.4 %
Extraction speed 2.3 X
Track quality 100.0 %
Test CRC 0B05B1B8
Copy CRC 0B05B1B8
Accurately ripped (confidence 3) [252B5997] (AR v2)
Copy OK

Track 5

Filename C:\New Folder\05 - Puccini - La Boheme- Si, Mi Chiamano Mimi.wav

Pre-gap length 0:00:03.18

Peak level 87.7 %
Extraction speed 2.5 X
Track quality 100.0 %
Test CRC D77B3C10
Copy CRC D77B3C10
Accurately ripped (confidence 4) [EF1F672C] (AR v2)
Copy OK

Track 6

Filename C:\New Folder\06 - Puccini - La Boheme- O Soave Fanciulla.wav

Peak level 96.2 %
Extraction speed 2.6 X
Track quality 100.0 %
Test CRC DE4A8843
Copy CRC DE4A8843
Accurately ripped (confidence 4) [517499ED] (AR v2)
Copy OK

Track 7

Filename C:\New Folder\07 - Puccini - La Boheme- Donde Lieta Usci.wav

Pre-gap length 0:00:03.18

Peak level 96.7 %
Extraction speed 2.6 X
Track quality 100.0 %
Test CRC 0B183AF2
Copy CRC 0B183AF2
Accurately ripped (confidence 4) [2BA7E529] (AR v2)
Copy OK

Track 8

Filename C:\New Folder\08 - Puccini - La Boheme- Sole E Amore.wav

Pre-gap length 0:00:02.65

Peak level 94.3 %
Extraction speed 2.4 X
Track quality 100.0 %
Test CRC E76476C2
Copy CRC E76476C2
Accurately ripped (confidence 4) [D207DA72] (AR v2)
Copy OK

Track 9

Filename C:\New Folder\09 - Puccini - Tosca- Vissi D' Arte.wav

Pre-gap length 0:00:03.12

Peak level 88.2 %
Extraction speed 2.7 X
Track quality 100.0 %
Test CRC 1D60AB98
Copy CRC 1D60AB98
Accurately ripped (confidence 4) [AB85A453] (AR v2)
Copy OK

Track 10

Filename C:\New Folder\10 - Puccini - Gianni Schicchi- O Mio Babbino Caro.wav

Pre-gap length 0:00:03.13

Peak level 85.8 %
Extraction speed 1.9 X
Track quality 99.9 %
Test CRC 573FA9DE
Copy CRC 573FA9DE
Accurately ripped (confidence 4) [3A3560B6] (AR v2)
Copy OK

Track 11

Filename C:\New Folder\11 - Wagner - Tannhauser- Dich, Teure Halle.wav

Pre-gap length 0:00:03.57

Peak level 98.7 %
Extraction speed 3.1 X
Track quality 100.0 %
Test CRC CA816003
Copy CRC CA816003
Accurately ripped (confidence 4) [9B8066BB] (AR v2)
Copy OK

Track 12

Filename C:\New Folder\12 - Wagner - Tannhauser- Allmacht 'ge Jungfrau.wav

Pre-gap length 0:00:04.17

Peak level 81.4 %
Extraction speed 3.3 X
Track quality 100.0 %
Test CRC 41730BBB
Copy CRC 41730BBB
Accurately ripped (confidence 4) [988D1489] (AR v2)
Copy OK

Track 13

Filename C:\New Folder\13 - Schumann - Du Bist Wie Eine Blume.wav

Pre-gap length 0:00:02.55

Peak level 57.5 %
Extraction speed 2.8 X
Track quality 100.0 %
Test CRC 6B5EC7A0
Copy CRC 6B5EC7A0
Accurately ripped (confidence 4) [1BD3CA17] (AR v2)
Copy OK

Track 14

Filename C:\New Folder\14 - Holst, Rossetti - In The Bleak Midwinter.wav

Pre-gap length 0:00:03.02

Peak level 68.2 %
Extraction speed 3.4 X
Track quality 100.0 %
Test CRC 7AB56481
Copy CRC 7AB56481
Accurately ripped (confidence 4) [083C5F82] (AR v2)
Copy OK

Track 15

Filename C:\New Folder\15 - Michael Legrand - The Windmills Of Your Mind (Les Moulins De Mon Coeur).wav

Pre-gap length 0:00:03.37

Peak level 42.8 %
Extraction speed 3.4 X
Track quality 100.0 %
Test CRC 4D4C3081
Copy CRC 4D4C3081
Accurately ripped (confidence 4) [BAA24424] (AR v2)
Copy OK


All tracks accurately ripped

No errors occurred

End of status report

–– CUETools DB Plugin V2.1.4

[CTDB TOCID: M64lqAvp.WM1j56CDUnKMn213X0-] found
Submit result: M64lqAvp.WM1j56CDUnKMn213X0- has been confirmed
Track | CTDB Status
1 | (3/3) Accurately ripped
2 | (3/3) Accurately ripped
3 | (3/3) Accurately ripped
4 | (3/3) Accurately ripped
5 | (3/3) Accurately ripped
6 | (3/3) Accurately ripped
7 | (3/3) Accurately ripped
8 | (3/3) Accurately ripped
9 | (3/3) Accurately ripped
10 | (3/3) Accurately ripped
11 | (3/3) Accurately ripped
12 | (3/3) Accurately ripped
13 | (3/3) Accurately ripped
14 | (3/3) Accurately ripped
15 | (3/3) Accurately ripped


==== Log checksum 4C535E55686228A9B00DC04754FBD03AA3C9B7F00B0263EDD3A2FBB75E75D993 ====

foobar2000 1.2 / Dynamic Range Meter 1.1.1
log date: 2016-05-01 13:36:44

––––––––––––––––––––––––––––––––––––––––
Analyzed: Various Artists / Kiri Te Kanawa - Best Of Kiri Te Kanawa
––––––––––––––––––––––––––––––––––––––––

DR Peak RMS Duration Track
––––––––––––––––––––––––––––––––––––––––
DR12 -0.29 dB -22.49 dB 1:03 01-Mozart - Cosi Fan Tutte- Temerari!
DR14 -1.19 dB -20.91 dB 4:27 02-Mozart - Cosi Fan Tutte- Come Scoglio Immoto Resta
DR14 -3.56 dB -24.00 dB 1:50 03-Mozart - Cosi Fan Tutte- Ei Parte…
DR15 -0.87 dB -23.70 dB 8:08 04-Mozart - Cosi Fan Tutte- Per Pieta, Ben Mio
DR14 -1.13 dB -22.85 dB 5:43 05-Puccini - La Boheme- Si, Mi Chiamano Mimi
DR14 -0.33 dB -21.81 dB 4:14 06-Puccini - La Boheme- O Soave Fanciulla
DR14 -0.28 dB -21.02 dB 3:26 07-Puccini - La Boheme- Donde Lieta Usci
DR12 -0.50 dB -20.51 dB 1:54 08-Puccini - La Boheme- Sole E Amore
DR12 -1.08 dB -18.81 dB 3:05 09-Puccini - Tosca- Vissi D' Arte
DR12 -1.32 dB -19.92 dB 2:18 10-Puccini - Gianni Schicchi- O Mio Babbino Caro
DR13 -0.11 dB -18.71 dB 4:53 11-Wagner - Tannhauser- Dich, Teure Halle
DR15 -1.78 dB -24.21 dB 5:53 12-Wagner - Tannhauser- Allmacht 'ge Jungfrau
DR12 -4.80 dB -23.18 dB 1:46 13-Schumann - Du Bist Wie Eine Blume
DR13 -3.32 dB -23.05 dB 4:25 14-Holst, Rossetti - In The Bleak Midwinter
DR13 -7.36 dB -27.50 dB 3:26 15-Michael Legrand - The Windmills Of Your Mind (Les Moulins De Mon Coeur)
––––––––––––––––––––––––––––––––––––––––

Number of tracks: 15
Official DR value: DR13

Samplerate: 44100 Hz
Channels: 2
Bits per sample: 16
Bitrate: 489 kbps
Codec: FLAC
================================================================================

Kiri Te Kanawa - Best Of Kiri Te Kanawa: Mozart, Wagner, Puccini, Schumann, Legrand (1999)

Kiri Te Kanawa - Best Of Kiri Te Kanawa: Mozart, Wagner, Puccini, Schumann, Legrand (1999)

All thanks to original releaser - alekow

More interesting music in My Blog