Subcategories
Tags
Language
Tags

Korni Grupa - Korni Grupa (1972)

Posted By: v3122
Korni Grupa - Korni Grupa (1972)

Korni Grupa - Korni Grupa (1972)
EAC | Flac(Image) + Cue + Log & MP3 CBR 320Kbps
2013 | Eastern Time, ET 05 | ~ 487 or 189 Mb | Scans(jpg) -> 5.63 Mb
Progressive Rock

At the beginning of the 70s in Yugoslavia not many artists were given opportunity to record an album. Indeed, when speaking of rock music, the preferred media format still was a single or EP, and of course the rock discographic industry was underdeveloped. However, among the first four LP records of rock music issued in this period, the two belonged to the progressive genre - the first TIME album and this one. "Korni grupa" is excellent example of early Yugoslavian prog rock which will remain unique effort of the best known line-up of Kovac, Bocek, Hreljac, Furduj and Pejakovic. This album established Bocek as a guitar-virtuoso, Kovac as a master of keyboards and talented composer, Pejakovic proved his vocal capabilities while the jazz-influenced rhythm section of Furduj and Hreljac gave a strong basis for above three. This album contains "Put za istok", an epic composition which will be a live favourite in their concerts and one of these will be included in the live set of a posthumuos double LP "Mrtvo more". The opener "Glas sa obale boja" is another highlight with combined acoustic and electric guitar riffs, while "Moj bol" offers a wild Bocek's guitar solo with some unnecessary vocal exhibitions by Pejakovic. "Bezglave ja-ha horde" is very close to jazz fusion with furious tempo and interesting combination of guitar solo exhibition and frenetic vocal screaming; this song will also be re-recorded for the second album "Not An Ordinary Life" where it would appear under the title "Fall Off The Land Of Women". The final song "Tata Ko i mama Spo" is a slow pseudo-ballad, with guitar weep effectively emulating the sound of a child's cry over a dispute between the divorced parents. This fine album still rocks after more than 30 years and it was amazingly well-produced given the circumstances in the music industry of the former Yugoslavia. Despite some weak vocal moments of "Moj bol", to give anything less than 5 stars would be rather cynical…

by Seyo, progarchives
Korni Grupa - Korni Grupa (1972):

Korni Grupa - Korni Grupa (1972)

Tracklist:

01. Glas Sa Obale Boja
02. Put Za Istok (Prvi Dan, Drugi Dan, Dilema, Zemlja)
03. Moj Bol
04. Bezglave Ja-Ha Horde
05. Tata Ko. I Mama Spo

Bonus Tracks:
06. Etida (A-Side 1973)
07. Jedna Zena (B-Side 1973)
08. Oj. Sokole (1971)
09. Neko Spava Pored Mene (B-Side 1970)
10. Slika (B-Side 1970)
11. Devojcice Mala (1969)
12. Magicna Ruka (EP 1969)
13. Pastiri I Cvet (A-Side 1969)

Musicians:

Bojan Hreljac - Bass, Percussion
Vladimir Furduj - Drums, Congas, Tamburitza
Josip Bocek - Guitar, Acoustic Guitar, Backing Vocals
Zlatko Pejakovic - Lead Vocals
Kornelije Kovac - Organ, Piano, Electric Piano, Vibraphone, Harpsichord [Klavsen], Backing Vocals


Converted to Image (CUETools 2.1.4)

Exact Audio Copy V1.1 from 23. June 2015

EAC extraction logfile from 11. December 2017, 20:06

Korni Grupa / Korni Grupa

Used drive : TSSTcorpCDDVDW SH-224DB Adapter: 1 ID: 0

Read mode : Secure
Utilize accurate stream : Yes
Defeat audio cache : Yes
Make use of C2 pointers : No

Read offset correction : 6
Overread into Lead-In and Lead-Out : No
Fill up missing offset samples with silence : Yes
Delete leading and trailing silent blocks : No
Null samples used in CRC calculations : Yes
Used interface : Native Win32 interface for Win NT & 2000
Gap handling : Appended to previous track

Used output format : User Defined Encoder
Selected bitrate : 1024 kBit/s
Quality : High
Add ID3 tag : No
Command line compressor : C:\Program Files (x86)\Exact Audio Copy\win64\flac.exe
Additional command line options : -8 -V -T "ARTIST=%artist%" -T "TITLE=%title%" -T "ALBUM=%albumtitle%" -T "DATE=%year%" -T "TRACKNUMBER=%tracknr%" -T "GENRE=%genre%" -T "COMMENT=%comment%" %source% -o %dest%


TOC of the extracted CD

Track | Start | Length | Start sector | End sector
––––––––––––––––––––––––––––-
1 | 0:00.00 | 4:28.64 | 0 | 20163
2 | 4:28.64 | 14:21.49 | 20164 | 84787
3 | 18:50.38 | 10:28.59 | 84788 | 131946
4 | 29:19.22 | 6:47.21 | 131947 | 162492
5 | 36:06.43 | 4:13.15 | 162493 | 181482
6 | 40:19.58 | 3:58.04 | 181483 | 199336
7 | 44:17.62 | 5:32.54 | 199337 | 224290
8 | 49:50.41 | 2:44.52 | 224291 | 236642
9 | 52:35.18 | 5:11.44 | 236643 | 260011
10 | 57:46.62 | 4:16.44 | 260012 | 279255
11 | 62:03.31 | 5:12.64 | 279256 | 302719
12 | 67:16.20 | 6:33.13 | 302720 | 332207
13 | 73:49.33 | 4:16.24 | 332208 | 351431


Track 1

Filename F:\Sket4er\Korni Grupa – Korni Grupa (1972) 2013\01 Glas Sa Obale Boja.wav

Pre-gap length 0:00:02.00

Peak level 100.0 %
Extraction speed 2.0 X
Track quality 100.0 %
Test CRC FC59E283
Copy CRC FC59E283
Track not present in AccurateRip database
Copy OK

Track 2

Filename F:\Sket4er\Korni Grupa – Korni Grupa (1972) 2013\02 Put Za Istok (Prvi Dan , Drugi Dan , Dilema , Zemlja).wav

Peak level 100.0 %
Extraction speed 2.6 X
Track quality 100.0 %
Test CRC 83082C2F
Copy CRC 83082C2F
Track not present in AccurateRip database
Copy OK

Track 3

Filename F:\Sket4er\Korni Grupa – Korni Grupa (1972) 2013\03 Moj Bol.wav

Peak level 100.0 %
Extraction speed 2.8 X
Track quality 99.9 %
Test CRC 83B25B9D
Copy CRC 83B25B9D
Track not present in AccurateRip database
Copy OK

Track 4

Filename F:\Sket4er\Korni Grupa – Korni Grupa (1972) 2013\04 Bezglave Ja-Ha Horde.wav

Peak level 100.0 %
Extraction speed 3.2 X
Track quality 100.0 %
Test CRC 88FC3DC6
Copy CRC 88FC3DC6
Track not present in AccurateRip database
Copy OK

Track 5

Filename F:\Sket4er\Korni Grupa – Korni Grupa (1972) 2013\05 Tata Ko. I Mama Spo.wav

Peak level 95.5 %
Extraction speed 3.2 X
Track quality 100.0 %
Test CRC AE887E75
Copy CRC AE887E75
Track not present in AccurateRip database
Copy OK

Track 6

Filename F:\Sket4er\Korni Grupa – Korni Grupa (1972) 2013\06 Etida (A-Side 1973).wav

Peak level 91.1 %
Extraction speed 2.6 X
Track quality 99.9 %
Test CRC 80334564
Copy CRC 80334564
Track not present in AccurateRip database
Copy OK

Track 7

Filename F:\Sket4er\Korni Grupa – Korni Grupa (1972) 2013\07 Jedna Zena (B-Side 1973).wav

Peak level 87.5 %
Extraction speed 3.5 X
Track quality 100.0 %
Test CRC 8E3D0A06
Copy CRC 8E3D0A06
Track not present in AccurateRip database
Copy OK

Track 8

Filename F:\Sket4er\Korni Grupa – Korni Grupa (1972) 2013\08 Oj. Sokole (1971).wav

Peak level 100.0 %
Extraction speed 2.3 X
Track quality 99.9 %
Test CRC C6546338
Copy CRC C6546338
Track not present in AccurateRip database
Copy OK

Track 9

Filename F:\Sket4er\Korni Grupa – Korni Grupa (1972) 2013\09 Neko Spava Pored Mene (B-Side 1970).wav

Peak level 91.0 %
Extraction speed 3.8 X
Track quality 100.0 %
Test CRC 2122392A
Copy CRC 2122392A
Track not present in AccurateRip database
Copy OK

Track 10

Filename F:\Sket4er\Korni Grupa – Korni Grupa (1972) 2013\10 Slika (B-Side 1970).wav

Peak level 91.2 %
Extraction speed 3.7 X
Track quality 100.0 %
Test CRC 456FFC2E
Copy CRC 456FFC2E
Track not present in AccurateRip database
Copy OK

Track 11

Filename F:\Sket4er\Korni Grupa – Korni Grupa (1972) 2013\11 Devojcice Mala (1969).wav

Peak level 84.1 %
Extraction speed 4.0 X
Track quality 100.0 %
Test CRC 7473D1E1
Copy CRC 7473D1E1
Track not present in AccurateRip database
Copy OK

Track 12

Filename F:\Sket4er\Korni Grupa – Korni Grupa (1972) 2013\12 Magicna Ruka (EP 1969).wav

Peak level 92.6 %
Extraction speed 4.2 X
Track quality 100.0 %
Test CRC CDAD2811
Copy CRC CDAD2811
Track not present in AccurateRip database
Copy OK

Track 13

Filename F:\Sket4er\Korni Grupa – Korni Grupa (1972) 2013\13 Pastiri I Cvet (A-Side 1969).wav

Peak level 86.5 %
Extraction speed 3.1 X
Track quality 99.9 %
Test CRC 321ABED0
Copy CRC 321ABED0
Track not present in AccurateRip database
Copy OK


None of the tracks are present in the AccurateRip database

No errors occurred

End of status report

–– CUETools DB Plugin V2.1.6

[CTDB TOCID: i0X42lQUabnL8A1ufSAk7w5mSXU-] found
Submit result: i0X42lQUabnL8A1ufSAk7w5mSXU- has been confirmed
Track | CTDB Status
1 | (2/2) Accurately ripped
2 | (2/2) Accurately ripped
3 | (2/2) Accurately ripped
4 | (2/2) Accurately ripped
5 | (2/2) Accurately ripped
6 | (2/2) Accurately ripped
7 | (2/2) Accurately ripped
8 | (2/2) Accurately ripped
9 | (2/2) Accurately ripped
10 | (2/2) Accurately ripped
11 | (1/2) Accurately ripped
12 | (2/2) Accurately ripped
13 | (2/2) Accurately ripped


==== Log checksum 95612066BB65C6009B40D49154FD2B0DDA05EB98E66E3CB1BA707E73BA22780B ====


[CUETools log; Date: 12.12.2017 15:36:17; Version: 2.1.5]
[AccurateRip ID: 002a37b6-0195ae16-b8124d0d] disk not present in database.

Track Peak [ CRC32 ] [W/O NULL] [ LOG ]
– 100,0 [4D81E6B8] [DAD0262F]
01 100,0 [FC59E283] [FEDC2B27] CRC32
02 100,0 [83082C2F] [6C7F35F8] CRC32
03 100,0 [83B25B9D] [61B6FB76] CRC32
04 100,0 [88FC3DC6] [91A6E14F] CRC32
05 95,5 [AE887E75] [DAB367AF] CRC32
06 91,1 [80334564] [9C3185DC] CRC32
07 87,5 [8E3D0A06] [8026D9F7] CRC32
08 100,0 [C6546338] [C411DD96] CRC32
09 91,0 [2122392A] [F850BAE0] CRC32
10 91,2 [456FFC2E] [A4EF8722] CRC32
11 84,1 [7473D1E1] [9E163518] CRC32
12 92,6 [CDAD2811] [D9A79F41] CRC32
13 86,5 [321ABED0] [7EB9C28F] CRC32


Korni Grupa - Korni Grupa (1972)

All thanks go to Sket4er

Download Korni Grupa - Korni Grupa (1972):