Tags
Language
Tags

Kristian Bezuidenhout, Pablo Heras-Casado, Freiburger Barockorchester - Beethoven: Piano Concerto No.4 (2020)

Posted By: ArlegZ
Kristian Bezuidenhout, Pablo Heras-Casado, Freiburger Barockorchester - Beethoven: Piano Concerto No.4 (2020)

Kristian Bezuidenhout, Pablo Heras-Casado, Freiburger Barockorchester - Beethoven: Piano Concerto No.4 (2020)
EAC | FLAC | Image (Cue & Log) ~ 195 Mb | Total time: 45:39 | Scans included
Classical | Label: Harmonia Mundi | # HMM902413 | Recorded: 2017

In their own way Beethoven’s five piano concertos relate a part of their composer’s life. In the previous volume of this complete recording, Kristian Bezuidenhout, Pablo Heras-Casado and the musicians of the Freiburger Barockorchester explored the beginning (Concerto no.2, a springboard to Viennese fame) and the end (the ‘Emperor’) of the story. They now turn to the most personal of all the Beethoven concertos, the Fourth which, at a time when the spectre of total deafness threatened his career, shattered the conventions of the genre - as did such orchestral works as Coriolan and the Overture to The Creatures of Prometheus.

Performer:
Kristian Bezuidenhout, fortepiano
Freiburger Barockorchester
Pablo Heras-Casado, conductor

Track List:
01. Coriolan Overture in C minor, Op.62
Piano Concerto No.4 in G major, Op.58
02. I. Allegro moderato
03. II. Andante con moto
04. III. Rondo. Vivace
05. Die Geschöpfe des Prometheus, Op.43 - Overture


Exact Audio Copy V1.5 from 20. February 2020

EAC extraction logfile from 7. July 2021, 20:34

Kristian Bezuidenhout, Freiburger Barockorchester, Pablo Heras-Casado / Beethoven - Piano Concerto No.4

Used drive : ASUS SDRW-08U7M-U Adapter: 1 ID: 0

Read mode : Secure
Utilize accurate stream : Yes
Defeat audio cache : Yes
Make use of C2 pointers : No

Read offset correction : 6
Overread into Lead-In and Lead-Out : No
Fill up missing offset samples with silence : Yes
Delete leading and trailing silent blocks : No
Null samples used in CRC calculations : Yes
Used interface : Native Win32 interface for Win NT & 2000

Used output format : User Defined Encoder
Selected bitrate : 128 kBit/s
Quality : High
Add ID3 tag : No
Command line compressor : C:\Program Files (x86)\Exact Audio Copy\Flac\flac.exe
Additional command line options : -V -8 -T "Date=%year%" -T "Genre=%genre%" %source%


TOC of the extracted CD

Track | Start | Length | Start sector | End sector
––––––––––––––––––––––––––––-
1 | 0:00.00 | 7:29.45 | 0 | 33719
2 | 7:29.45 | 18:35.01 | 33720 | 117345
3 | 26:04.46 | 4:55.25 | 117346 | 139495
4 | 30:59.71 | 9:44.16 | 139496 | 183311
5 | 40:44.12 | 4:53.49 | 183312 | 205335


Range status and errors

Selected range

Filename C:\temp\HMM902413 - Beethoven - Piano Concerto No.4 - Bezuidenhout, Freiburger Barockorchester, Heras-Casado - 2020\Beethoven - Piano Concerto No.4.wav

Peak level 94.4 %
Extraction speed 4.3 X
Range quality 100.0 %
Test CRC 6B191665
Copy CRC 6B191665
Copy OK

No errors occurred


AccurateRip summary

Track 1 accurately ripped (confidence 5) [26FFC953] (AR v2)
Track 2 accurately ripped (confidence 5) [B7AFEF75] (AR v2)
Track 3 accurately ripped (confidence 5) [F52BE387] (AR v2)
Track 4 accurately ripped (confidence 5) [065CB7D2] (AR v2)
Track 5 accurately ripped (confidence 5) [B527B1D9] (AR v2)

All tracks accurately ripped

End of status report

==== Log checksum 71EC7AE721E7E532A24091D8622A9683B645C0F46C48D70839817A5370DB0701 ====

Kristian Bezuidenhout, Pablo Heras-Casado, Freiburger Barockorchester - Beethoven: Piano Concerto No.4 (2020)

Thanks to the original releaser