Tags
Language
Tags

Kronos Quartet performs Philip Glass (1995)

Posted By: ArlegZ
Kronos Quartet performs Philip Glass (1995)

Kronos Quartet performs Philip Glass (1995)
EAC | FLAC | Image (Cue & Log) ~ 282 Mb | Total time: 61:27 | Scans included
Classical | Label: Nonesuch Records | # 7559-79356-2 | Recorded: 1993

Philip Glass’ string quartets may contain his most intimate music. They are works through which a very public composer, perhaps the most important opera reformer of our age and a longstanding collaborator in large-scale music theater, holds up a mirror to himself and his way of composing.
“The 20th century’s most daring, eclectic and popular string quartet delivers what might be the most essential Philip Glass recording of them all. It features four masterful string quartets, including the briskly lyrical No. 2, aka ‘Company,’ and No. 3, from the 1985 film score for Mishima.” (Kerry Lengel)

Performer:
Kronos Quartet:
David Harrington, violin
John Sherba, violin
Hank Dutt, viola
Joan Jeanrenaud, cello

Track List:
01-05. String Quartet No. 5
06-08. String Quartet No. 4 "Buczak"
09-12. String Quartet No. 2 "Company"
13-18. String Quartet No. 3 "Mishima"


Exact Audio Copy V1.6 from 23. October 2020

EAC extraction logfile from 9. April 2022, 20:46

Kronos Quartet / Kronos Quartet performs Philip Glass

Used drive : ASUS DRW-24B1ST j Adapter: 1 ID: 0

Read mode : Secure
Utilize accurate stream : Yes
Defeat audio cache : Yes
Make use of C2 pointers : No

Read offset correction : 6
Overread into Lead-In and Lead-Out : No
Fill up missing offset samples with silence : Yes
Delete leading and trailing silent blocks : No
Null samples used in CRC calculations : Yes
Used interface : Native Win32 interface for Win NT & 2000

Used output format : User Defined Encoder
Selected bitrate : 896 kBit/s
Quality : High
Add ID3 tag : No
Command line compressor : C:\Program Files (x86)\Exact Audio Copy\Flac\flac.exe
Additional command line options : -6 -V -T "ARTIST=%artist%" -T "TITLE=%title%" -T "ALBUM=%albumtitle%" -T "DATE=%year%" -T "TRACKNUMBER=%tracknr%" -T "GENRE=%genre%" -T "COMMENT=%comment%" -T "BAND=%albuminterpret%" -T "ALBUMARTIST=%albuminterpret%" -T "COMPOSER=%composer%" %haslyrics%–tag-from-file=LYRICS="%lyricsfile%"%haslyrics% -T "DISCNUMBER=%cdnumber%" -T "TOTALDISCS=%totalcds%" -T "TOTALTRACKS=%numtracks%" %hascover%–picture="%coverfile%"%hascover% %source% -o %dest%


TOC of the extracted CD

Track | Start | Length | Start sector | End sector
––––––––––––––––––––––––––––-
1 | 0:00.00 | 1:11.60 | 0 | 5384
2 | 1:11.60 | 2:59.02 | 5385 | 18811
3 | 4:10.62 | 5:28.13 | 18812 | 43424
4 | 9:39.00 | 4:38.10 | 43425 | 64284
5 | 14:17.10 | 7:46.30 | 64285 | 99264
6 | 22:03.40 | 7:59.35 | 99265 | 135224
7 | 30:03.00 | 6:22.65 | 135225 | 163939
8 | 36:25.65 | 8:48.45 | 163940 | 203584
9 | 45:14.35 | 2:11.10 | 203585 | 213419
10 | 47:25.45 | 1:36.30 | 213420 | 220649
11 | 49:02.00 | 1:32.35 | 220650 | 227584
12 | 50:34.35 | 2:12.65 | 227585 | 237549
13 | 52:47.25 | 3:31.15 | 237550 | 253389
14 | 56:18.40 | 1:22.60 | 253390 | 259599
15 | 57:41.25 | 2:43.65 | 259600 | 271889
16 | 60:25.15 | 1:40.60 | 271890 | 279449
17 | 62:06.00 | 3:14.00 | 279450 | 293999
18 | 65:20.00 | 3:09.15 | 294000 | 308189


Range status and errors

Selected range

Filename G:\Tubarec rips\Glass - Strings Q!uyartets Nos. 2-5 - Kronos SQ\Kronos Quartet - Kronos Quartet performs Philip Glass.wav

Peak level 96.7 %
Extraction speed 8.9 X
Range quality 99.9 %
Test CRC 6A43E329
Copy CRC 6A43E329
Copy OK

No errors occurred


AccurateRip summary

Track 1 accurately ripped (confidence 94) [438E176B] (AR v2)
Track 2 accurately ripped (confidence 94) [1AC158DF] (AR v2)
Track 3 accurately ripped (confidence 95) [7C303AA7] (AR v2)
Track 4 accurately ripped (confidence 95) [D1DD4BC8] (AR v2)
Track 5 accurately ripped (confidence 94) [AA0D1423] (AR v2)
Track 6 accurately ripped (confidence 93) [A8607CCF] (AR v2)
Track 7 accurately ripped (confidence 94) [D949522F] (AR v2)
Track 8 accurately ripped (confidence 94) [14600E64] (AR v2)
Track 9 accurately ripped (confidence 94) [2C622680] (AR v2)
Track 10 accurately ripped (confidence 94) [7EB7ED09] (AR v2)
Track 11 accurately ripped (confidence 95) [F0868A71] (AR v2)
Track 12 accurately ripped (confidence 93) [0BE58F9A] (AR v2)
Track 13 accurately ripped (confidence 93) [94479A75] (AR v2)
Track 14 accurately ripped (confidence 94) [E12BB2E3] (AR v2)
Track 15 accurately ripped (confidence 94) [07B5DFC8] (AR v2)
Track 16 accurately ripped (confidence 94) [A7161AF2] (AR v2)
Track 17 accurately ripped (confidence 92) [8E104140] (AR v2)
Track 18 accurately ripped (confidence 93) [9C75BA87] (AR v2)

All tracks accurately ripped

End of status report

–– CUETools DB Plugin V2.1.6

[CTDB TOCID: _hB.dT5toY71xlVVQiYStHKG4oE-] found
Submit result: already submitted
Track | CTDB Status
1 | (280/282) Accurately ripped
2 | (277/282) Accurately ripped
3 | (278/282) Accurately ripped
4 | (277/282) Accurately ripped
5 | (275/282) Accurately ripped
6 | (276/282) Accurately ripped
7 | (275/282) Accurately ripped
8 | (274/282) Accurately ripped
9 | (275/282) Accurately ripped
10 | (278/282) Accurately ripped
11 | (276/282) Accurately ripped
12 | (276/282) Accurately ripped
13 | (276/282) Accurately ripped
14 | (276/282) Accurately ripped
15 | (276/282) Accurately ripped
16 | (276/282) Accurately ripped
17 | (275/282) Accurately ripped
18 | (274/282) Accurately ripped, or (2/282) differs in 274 samples @03:08:72-03:09:04


==== Log checksum E0E03411F38E30F5A2DDF000C577A2E0C4D4EEF4C15CD6779BC2F5F6B5C2D2F2 ====

Kronos Quartet performs Philip Glass (1995)

Thanks to the original releaser