Tags
Language
Tags
November 2022
Su Mo Tu We Th Fr Sa
30 31 1 2 3 4 5
6 7 8 9 10 11 12
13 14 15 16 17 18 19
20 21 22 23 24 25 26
27 28 29 30 1 2 3

Marie-Claire Alain - L'Orgue Français [22CDs] (2014)

Posted By: ArlegZ
Marie-Claire Alain - L'Orgue Français [22CDs] (2014)

Marie-Claire Alain - L'Orgue Français [22CDs] (2014)
EAC | FLAC | Image (Cue & Log) ~ 7,18 Gb | Total time: 28:42:52 | Scans included
Classical | Label: Erato | # 2564631064 | Recorded: 1955-2000

Known as the ‘First Lady of the organ’, Marie-Claire Alain was a strikingly mature, creative and intuitive artist. Spanning four centuries of music, from Baroque masterpieces by the likes of Couperin and Grigny, through cornerstones of the French organ repertoire by Widor, Vierne and Messiaen, to two discs of works by her brother Jehan, this collection is testament to her vast and impressively wide-ranging recording legacy.

Performer:
Marie-Claire Alain, organ


CD 01:
Nicolas Lebègue
Suite du 1er Ton (Premier Livre d'Orgue)
01. Prélude
02. Duo
03. Cromorne en taille
04. Basse de trompette
05. Trio à trois claviers
06. Récit de voix humaine
07. Dialogue
Suite du 2ème Ton (Premier Livre d'Orgue)
08. 1. Prélude
09. 2. Cornet
10. 3. Trio à 2 dessus
11. 4. Duo
12. 5. Cormorne ou tierce en taille
13. 6. Trios à trois claviers
14. 7. Dessus de cromorne ou de trompette
15. 8. Dialogue
Troisième Livre d'Orgue
16. Les cloches
17. Élévation g-moll
18. Offertoire über "O Filii"
Magnificat du Premier ton (Deuxième livre d'Orgue)
19. 1. Prélude
20. 2. Duo
21. 3. Récit pour le cromorne
22. 4. Basse de trompette
23. 5. Trio
24. 6. Dialogue
25. 7. Plein jeu
Suite im 6. Ton (Premier livre d'Orgue)
26. Tierce en taille
Suite du 6ème Ton (Troisième livre d'Orgue)
27. Sinfonie es-moll
28. Noël: Où s'en vont ces gais bergers
Guillaume-Gabriel Nivers
Suite du 2ème Ton (Troisième livre d'Orgue)
29. 1. Prélude
30. 2. Fugue
31. 3. Dialogue de récits
32. 4. Duo
33. 5. Basse
34. 6. Écho
35. 7. Dialogue à deux choeurs
Suite du 1er Ton (Troisème livre d'Orgue)
36. 1. Prélude du premier ton
37. 2. Fugue grave
38. 3. Récit
39. 4. Duo
40. 5. Basse
41. 6. Écho
42. 7. Dialogue à deux choeurs
CD 02:
François Couperin
Messe à l'usage des couvents
01. Gaudeamus omnes (Introït)
02. Plein jeu - Kyrie (Kyrie)
03. Fugue sur la trompette - Christe
04. Récit de cromorne - Christe
05. Trio à 2 dessus - Kyrie
06. Dialogue sur la trompette
07. Gloria in excelsis Deo - Premier couplet du Gloria (Gloria)
08. Petite fugue sur le cromorne - Adoramus te
09. Duo sur les tierces - Gratias animus tibi
10. Basse de trompette - Domine Fili
11. Cromorne sur la taille - Qui tollis peccata mundi
12. Dalogue sur la voix humaine - Qui sedes
13. Trio - Tu solus Dominus
14. Récit de tierce - Cum Sancto spiritus
15. Dialogue sur les grands jeux
16. Offertoire sur les grands jeux (Offertoire)
17. Le célébrant
18. Plein jeux - Sanctus (Sanctus)
19. Récit de concert - Benedictus
20. Tierce en taille (Élévation)
21. Choeur (O salutaris hostia)
22. Plein jeu - Agnus Dei (Agnus Dei)
23. Dialogue sur les grands jeux
24. Domine salvum fac regem (Prière pour le Roy)
25. Ite missa est - Deo gratias
Louis Marchand
Pièces d'Orgue
26. Dialogue (Troisième livre)
27. Récit (Deuxième livre)
28. Fond d'orgue
29. Récit
30. Grand jeu
31. Fugue (Quatrième livre)
32. Cromorne en taille
33. Basse de trompette (Cinquième livre)
34. Plein jeu
35. Fugue
36. Tierce en taille
CD 03:
Louis Couperin
Messe pour les Paroisses
01. Plein chant du premier Kyrie, en taille - Kyrie eleison (Kyrie)
02. Fugue sur les jeux d'anches - Christe eleison
03. Récit de cromorne - Christe eleison
04. Dialogue sur la trompette et le cromorne - Kyrie eleison
05. Plein chant
06. Gloria in excelsis Deo - Et in terra pax - Laudamus te (Gloria)
07. Petite fugue sur le cromorne - Adoramus te
08. Duo sur les tierces - Gratias agimus
09. Dialogue - Domine Fili unigenite
10. Trio à 2 dessus de cromorne et la basse de tierce - Qui tollis
11. Tierce en taille - Qui sedes
12. Dialogue sur la voix humaine - Tu solus Dominus
13. Dialogue en trio du cornet et de la tierce - Cum Sancto Spiritu
14. Dialogue sur les grands jeux
15. Alleluia (Alleluia de la fête de la Saint Pierre)
16. Offertoire sur les grands jeux (Offertoire)
17. Per quem majestatem (Sanctus)
18. Plein chant du premier Sanctus, en canon - Sanctus
19. Récit de cornet - Pleni sunt coeli
20. Benedictus - O salutaris hostia
21. Plein chant - Agnus Dei (Agnus Dei)
22. Plein chant de l'Agnus Dei - Agnus Dei
23. Domine salvum fac regem (Prière pour le Roy)
24. Ite missa est - Deo gratias (Ite missa est)
Jehan Alain
25. Sarabande
CD 04:
Nicolas de Grigny
Messe 'Cunctipotens genitor Deus'
01. Kyrie Nr. 1 en taille à 5 - Kyrie eleison (Kyrie)
02. Fugue à 5 - Christe eleison
03. Cormorne en taille à 2 parties - Christe eleison
04. Trio en dialogue - Kyrie eleison
05. Dialogue sur les grands jeux
06. Gloria in excelsis Deo - Et in terra pax - Laudamus te (Gloria)
07. Fugue - Adoramus te
08. Duo - Gratias agimus
09. Basse de trompette - Domine Fili
10. Récit de tierce en taille - Qui tollis
11. Dialogue - Qui sedes
12. Fugue à 5 - Tu solus Dominus
13. Trio - Cum Sancto Spiritu
14. Dialogue
15. Offertoire sur les grands jeux (Offertoire)
16. Et ideo cum angelis - 1. Sanctus à 5 en taille - Sanctus (Sanctus)
17. Fugue - Pleni sunt coeli
18. Récit de tierce pour le benedictus - Hosanna
19. Dialogue de flûtes pour l'Élévation
20. Agnus Nr. 1 - Agnus Dei (Agnus Dei)
21. Dialogue
22. Dialogue à 2 tailles de cromone et 2 dessus de cornet pour la communion (Communion)
23. Pro Rege (Prière pour le Roy)
24. Ite missa est - Plein jeu (Ite missa est)
CD 05:
Nicolas de Grigny
Veni Creator (Hymne)
01. Veni Creator en taille à 5 - Qui Paraclitus diceris
02. Fugue à 5 - Accende lumen sensibus
03. Duo - Per te sciamus da Patrem
04. Récit de cromorne - Gloria Patri Domino
05. Dialogue sur les grands jeu
06. Pange llingua en taille à 4 - Nobis datus, nobis datus
07. Fugue à 5 - Verbum caro, panem verum
08. Récit du chant de l'hymne prècedent - Genitori genitoque
Verbum supernum (Hymne)
09. Verbum supernum - In mortem discipulo
10. Fugue à 5 - Se nascens dedit socium
11. Récit en dialogue - Uni trinoque Domino
12. Récit de basse de trompette ou de cromorne
Ave maris stella (Hymne)
13. Ave maris stella - Sullens illud ave
14. Fugue à 4 - Monstra te esse Matrem
15. Duo - Vitam praesta puram
16. Dialogue sur les grands jeux
A solis ortus (Hymne)
17. A solis ortus - Beatus auctor saeculi
18. Fugue à 5 - Domus pudici pectoris
19. Trio - Foeno jacere pertulit
20. Point d'orgue sur les gands jeux - Gloria tibi Domine
Verbum supernum (Hymne)
21. Verbum supernum
22. Fugue
23. Récit en dialogue
24. Récit de basse de trompette ou de cromorne
A solis ortus (Hmyne)
25. A solis ortus
26. Fugue à 5
27. Trio
28. Point d'orgue sur les grands jeux
CD 06:
Nicolas de Grigny
Messe 'Cunctipotens Genitor Deus'
01. Premier Kyrie
02. Fugue à 5
03. Cromorne en taille
04. Trio en dialogue
05. Dialogue sur les grands jeux
06. Et in terra pax à 5
07. Fugue à 4
08. Duo
09. Récit de tierce en taille
10. Basse de trompette ou de cromorne
11. Dialogue
12. Fugue à 5
13. Trio
14. Dialogue
15. Offertoire sur les grands jeux
16. Sanctus Nr. 1 en taille à 5
17. Fugue
18. Récit de tierce pour le benedictus
19. Dialogue de flûtes pour l'Élévation
20. Agnus Nr. 1
21. Dialogue
22. Dialogue à 2 taille de cromorne et 2 dessus de cornet pour la communion
23. Plein jeu
Ave maris stella (Hymne)
24. Ave maris stella
25. Fugue à 4
26. Duo
27. Dialogue sur les grands jeux
CD 07:
Nicolas de Grigny
Veni Creator
01. Veni Creator en taille à 5
02. Fugue à 5
03. Duo
04. Récit de cromorne
05. Dialogue sur les grands jeux
Pange lingua
06. Pange lingua en taille à 4
07. Fugue à 5
08. Récit du chant de l'hymne précédent
Louis Marchand
Premier livre pour orgue
09. Plein jeu
10. Fugue
11. Trio
12. Basse de trompette
13. Quatuor
14. Tierce en taille
15. Duo
16. Récit
17. Tierce en taille
18. Basse de cromorne
19. Fond d'orgue
20. Dialogue
Pierre du Mage
Suite du premier ton
21. 1. Plein jeu
22. 2. Fugue
23. 3. Trio
24. 4. Tierce en taille
25. 5. Basse de trompette
26. 6. Récit
27. 7. Duo
28. 8. Grand jeu
Pierre Dandrieu
29. Noël en ré mineur
CD 08:
Louis-Nicolas Clérambault
Suite du Premier ton
01. 1. Grand plein jeu
02. 2. Fugue
03. 3. Duo
04. 4. Trio
05. 5. Basse et dessus de trompette ou de cornet séparé, en dialogue
06. 6. Récits de cromorne et de cornet séparés en dialogue
07. 7. Dialogue sur les grands jeux
Suite du Deuxième ton
08. 1. Plein jeu
09. 2. Duo
10. 3. Trio
11. 4. Basse de cromorne
12. 5. Flûtes
13. 6. Récit de nazard
14. 7. Caprice sur les grands jeux
Jean Adam Guilain
Suite du Premier ton
15. 1. Plein jeu
16. 2. Trio
17. 3. Duo
18. 4. Basse de trompette
19. 5. Récit
20. 6. Dialogue
21. 7. Petit plein jeu
Suite du Deuxième ton
22. 1. Prélude
23. 2. Tierce en taille
24. 3. Duo
25. 4. Basse de trompette
26. 5. Trio de flûtes
27. 6. Dialogue
28. 7. Petit plein jeu
Suite du Troisième ton
29. 1. Plein jeu
30. 2. Quatuor
31. 3. Dialogue de voix humaine
32. 4. Basse de trompette (et dessus de cornet)
33. 5. Duo
34. 6. Grand jeu
35. 7. Petit plein jeu
Suite du Quatrième ton
36. 1. Plein jeu
37. 2. Cromorne en taille
38. 3. Duo
39. 4. Basse de cromorne
40. 5. Trio
41. 6. Dialogue
42. 7. Petit plein jeu
CD 09:
Jean-François Dandrieu
Messe solenelle de Saint-Hubert
01. Introït
02. Kyrie
03. Introït Nr. 2
04. Trio avec pédale
05. Kyrie Nr. 2
06. Offertoire
07. Offertoire
08. Magnificat (Verset Nr. 1)
09. Offertoire Nr. 2
10. Duo sur la trompette
11. Élévation
12. Duo
13. O salutaris Hostia
14. Flûtes
15. Cantique du sonneur
16. Basse et dessus de trompette
17. Carillon
18. Trio
19. Domine salvam fac
20. Duo en cors de chasse sur la trompette
21. La grande fanfare
22. Dialogue
Jean Francois Dandrieu
23. Offertoire O filii
24. Basse de cromorne
25. Magnificat
26. Flûtes
27. Basse de trompette
28. Offertoire
29. Fugue
30. Trio avec pédale
31. Muzète
32. Tierce en taille
33. Jean Francois Dandrieu: Offertoire
CD 10:
Jean-François Dandrieu
01. Joseph est bien marié (Noël)
02. Adam fut un pauvre homme (Noël)
03. Noël de Saintonge (Noël)
04. Je me suis levé (Noël)
05. Chantons de voix hautaine (Noël)
François Dagincour
Suite du Deuxième ton
06. 1. Plein jeu
07. 2. Récit de nazard
08. 3. Duo
09. 4. Basse de cromorne
10. 5. Concert de flûtes
11. 6. Dialogue
Suite du Cinquième ton
12. 1. Plein jeu - 2. Fugue
13. 3. Fugue
14. 4. Duo
15. 5. Cornet
16. 6. Récit de nazard
17. 7. Concert de flûtes
18. 8. Trio
19. 9. Dialogue
Camille Saint-Saëns
3 Rhapsodies on Breton Themes
20. No. 1 E-Dur
21. No. 2 D-Dur
22. No. 3 a-moll
Gabriel Fauré
23. Tantum ergo op. 65 No. 2
24. Maria, Mater gratiae Op. 47 No. 2
25. Ave verum corpus op. 65 No. 1
Léon Boëllmann
Suite gothique Op.25
26. 1. Introduction - Choral
27. 2. Menuet gothique
28. 3. Prière à Notre Dame
29. 4. Toccata
CD 11:
Claude-Bénigne Balbastre
01. Ou s'en vont ces gais bergers? (Noël)
02. Ah! Ma voisine, es-tu fâchée? (Noël)
03. Tous les bourgeois de Châtre (Noël)
04. Votre bonté, Grand Dieu (Noël)
Louis-Claude Daquin
Suite de Noëls
05. 1. Noël sur les jeux d'anches sans tremblant
06. 2. Noël en dialogue, duo et trio
07. 3. Noël en musette, en dialogue et en duo
08. 4. Noël en duo, sur les jeux d'anches sans tremblant
09. 5. Noël en duo
10. 6. Noël sur les jeux d'anches sans temblant, et en duo
11. 7. Noël en trio et en dialogue
12. 8. Noël étranger sur les jeux d'anches sans temblant, et en duo
13. 9. Noël sur les flûtes
14. 10. Noël, grand jeu et duo
15. 11. Noël en récit en taille sur la tierce du positif, avec la pédale de flûte, et en duo
16. 12. Noël suisse, grand jeu et en duo
CD 12:
César Franck
Prélude, fugue et variations Op.18
01. 1. Andantino
02. 2. Lent - Allegretto ma non troppo
03. 3. Andantino
04. Choral No. 1 en mi majeur
05. Choral No. 2 en si mineur
06. Choral No. 3 en la mineur
07. Prière cis-moll op. 20
08. Finale op. 21
Alexandre Pierre François Boëly
09. Fantaisie en si bémol majeur
Théodore Dubois
10. Toccata No.3 en sol majeur
CD 13:
César Franck
Fantaisie, Op.16
01. 1. Poco lento
02. 2. Allegro cantando
03. 3. Quasi lento
04. 4. Adagio
05. Pièce héroïque
06. Cantabile H-Dur
07. Fantaisie en la majeur
Grande Pièce symphonique, ,p. 17
08. 1. Andantino serioso
09. 2. Andante
10. 3. Allegro
11. 4. Andante
12. 5. Allegro non troppo e maestoso
13. 6. Beaucoup plus largement que précédemment
14. Pastorale E-Dur op. 19
Alexandre Guilmant
15. Organ Sonata No. 1 en ré mineur Op.42 - III. Final
CD 14:
Charles-Marie Widor
Symphony no. 3 in E minor, op. 13 no. 3
01. 1. Prélude: Moderato
02. 2. Adagio
03. 3. Finale: Allegro molto
Symphony no. 4 in F minor, op. 13 no. 4
04. 1. Toccata
05. 2. Fugue
06. 3. Andante cantabile
07. 4. Scherzo
08. 5. Adagio
09. 6. Finale: Moderato
Symphony no. 9 in C minor, op. 70 "Gothique"
10. 1. Moderato
11. 2. Andante sostenuto
12. 3. Allegro
13. 4. Moderato - Allegro - Moderato - Andante
14. 5. Finale: Allegro
Symphony no. 1 in C minor, op. 13 no. 1
15. 6. Méditation
CD 15:
Symphonie pour orgue No.6 en sol mineur Op.42 No.2
01. 1. Allegro
02. 2. Adagio
03. 3. Intermezzo
04. 4. Cantabile
05. 5. Finale: Vivace
Symphonie pour orgue No.2 en ré majeur Op.13 No.2
06. 6. Finale: Allegro
Symphonie pour orgue No.5 en fa mineur Op.42 No.1
07. 1. Allegro vivace
08. 2. Allegro cantabile
09. 3. Andantino quasi allegretto
10. 4. Adagio
11. 5. Toccata
Eugène Gigout
12. Toccata in si mineur
13. Scherzo en mi majeur
CD 16:
Louis Vierne
Symphonie pour orgue n°2 op.20
01. 1. Allegro
02. 2. Choral
03. 3. Scherzo
04. 4. Cantabile
05. 5. Final
Symphonie pour orgue n°4 op.32
06. 1. Prélude
07. 2. Allegro
08. 3. Menuet
09. 4. Romance
10: 5. Final
Pièces de Fantaisie, 3ème suite op.54
11. n°2 Impromptu
CD 17:
Louis Vierne
Symphonie pour orgue n°3 en fa dièse mineur op.28
01. 1. Allegro maestoso
02. 2. Cantilène
03. 3. Intermezzo
04. 4. Adagio
05. 5. Final
Symphonie pour orgue n°1 en ré mineur op.14
06. 1. Prélude
07. 2. Fugue
08. 3. Pastorale
09. 4. Allegro vivace
10. 5. Andante
11. 6. Final
Pièces de fantaisie, Suite No.3 Op.54
12. n°6 Carillon de Westminster
Pièces de fantaisie, Suite No.2 Op.53
13. n°6 Toccata
CD 18:
Albert Alain
01. Toccata on 'Cantemus Domino' Op.323 - Finale
02. Scherzo en mi mineur
Francis Poulenc
Concerto pour orgue, cordes et timbales en sol mineur
03. Andante - Allegro giocoso - Andante moderato - Tempo allegro, molto agitato - Très calme, lent - Tempo de l'allegro…
Jean Langlais
Suite médievale en forme de Messe basse op. 56 (1947)
04. 1. Prélude (Entrée)
05. 2. Tiento (Offertoire)
06. 3. Improvisation (Élévation)
07. 4. Méditation (Communion)
08. 5. Acclamation (sur le thème des acclamations carolingiennes)
Jacques Charpentier
Symphonie No. 6 pour orchestre et orgue "Mais déjà le soleil touchait à l'horizon"
09. 1. Lent et soutenu
10. 2. Très modéré
11. 3. Più mosso
12. 4. Lent, soutenu et expressif
13. 5. Un peu plus lent
14. 6. Très lent
CD 19:
Maurice Duruflé
Prélude et fugue sur le nom d'Alain, Op.7
01. Prélude
02. Fugue
Olivier Messiaen
La Nativité du Seigneur
03. Nr. 1 Le Vierge et l'Enfant
04. Nr. 2 Les Bergers
05. Nr. 3 Desseins éternels
06. Nr. 4 Le verbe
07. Nr. 5 Les Enfants de Dieu
08. Nr. 6 Les Anges
09. Nr. 7 Jésus accepte la souffrance
10. Nr. 8 Les Mages
11. Nr. 9 Dieu parmi nous
12. Le Banquet celeste
13. Apparition de l'Église éternelle
CD 20:
Jehan Alain
01. Ballade en mode phrygien
02. Aria
03. Le jardin suspendu
04. Lamento
05. Berceuse sur deux notes qui cornent
06. Climat
07. Monodie
08. Andante
09. Chant donné
10. De Jules Lemaitre
11. Fantasmagorie (première version)
12. Variations sur un thème de Clément Jannequin
13. Première Fantaisie
Suite für Orgel
14. 1. Introduction et variations
15. 2. Scherzo
16. 3. Choral
17. Deux Danses à Agni Yavishta
18. Petite pièce
19. Variations sur Lucis Creator
CD 21:
Jehan Alain
01. Prélude et Fugue
02. Premier Prélude 'Wieder An'
03. Deuxième Prélude "Und jetzt"
Trois Minutes
04. Nr. 1 Un cercle d'argent
05. Nr. 2 Romance
06. Nr. 3 Grave
07. Postlude pour l'office de Complies
08. Complainte à la mode ancienne
09. Fugue en mode de fa
10. Verset - Choral
11. Tantum ergo
12. Litanies op. 79
13. Choral Dorien
14. Choral Phrygien
15. Choral Cistercien
16. Intermezzo
17. Deuxième Fantaisie
Trois Danses, JA 120
18. Nr. 1 Joies
19. Nr. 2 Deuils (Danse funèbre pour honorer une mémoire héroique)
20. Nr. 3 Luttes
CD 22:
Camille Saint-Saëns
Symphonie No.3 en ut mineur Op.78
01. 1. Adagio - Allegro moderato
02. 2. Allegro moderato
03. 3. Maestoso - Allegro
Jehan Alain
3 Movements pour flûte et orgue, JA 74c
04. 1. Andante
05. 2. Allegro con grazia
06. 3. Allegro vivace
Charles Chaynes
Concerto pour orgue
07. 1. Lent - Mistérieux - Allegro - Lent - Allegro - Lent
08. 2. Très lent
09. 3. Très vif, scintillant



Exact Audio Copy V1.6 from 23. October 2020

EAC extraction logfile from 29. March 2022, 15:51

Alain, Marie-Claire / L' Orgue Français - CD1

Used drive : ASUS BW-12D1S-U Adapter: 1 ID: 0

Read mode : Secure
Utilize accurate stream : Yes
Defeat audio cache : Yes
Make use of C2 pointers : No

Read offset correction : 667
Overread into Lead-In and Lead-Out : No
Fill up missing offset samples with silence : Yes
Delete leading and trailing silent blocks : No
Null samples used in CRC calculations : Yes
Used interface : Native Win32 interface for Win NT & 2000

Used output format : User Defined Encoder
Selected bitrate : 1024 kBit/s
Quality : High
Add ID3 tag : No
Command line compressor : C:\Program Files (x86)\Exact Audio Copy\FLAC\FLAC.EXE
Additional command line options : -6 -V -T "ARTIST=%artist%" -T "TITLE=%title%" -T "ALBUM=%albumtitle%" -T "DATE=%year%" -T "TRACKNUMBER=%tracknr%" -T "GENRE=%genre%" -T "COMMENT=%comment%" -T "BAND=%albuminterpret%" -T "ALBUMARTIST=%albuminterpret%" -T "COMPOSER=%composer%" %haslyrics%–tag-from-file=LYRICS="%lyricsfile%"%haslyrics% -T "DISCNUMBER=%cdnumber%" -T "TOTALDISCS=%totalcds%" -T "TOTALTRACKS=%numtracks%" %hascover%–picture="%coverfile%"%hascover% %source% -o %dest%


TOC of the extracted CD

Track | Start | Length | Start sector | End sector
––––––––––––––––––––––––––––-
1 | 0:00.00 | 2:09.56 | 0 | 9730
2 | 2:09.56 | 1:31.22 | 9731 | 16577
3 | 3:41.03 | 3:03.52 | 16578 | 30354
4 | 6:44.55 | 1:34.28 | 30355 | 37432
5 | 8:19.08 | 1:35.62 | 37433 | 44619
6 | 9:54.70 | 2:43.25 | 44620 | 56869
7 | 12:38.20 | 2:01.64 | 56870 | 66008
8 | 14:40.09 | 1:43.69 | 66009 | 73802
9 | 16:24.03 | 1:31.47 | 73803 | 80674
10 | 17:55.50 | 1:20.33 | 80675 | 86707
11 | 19:16.08 | 1:12.70 | 86708 | 92177
12 | 20:29.03 | 3:47.42 | 92178 | 109244
13 | 24:16.45 | 1:52.21 | 109245 | 117665
14 | 26:08.66 | 1:45.10 | 117666 | 125550
15 | 27:54.01 | 1:43.12 | 125551 | 133287
16 | 29:37.13 | 2:19.08 | 133288 | 143720
17 | 31:56.21 | 2:59.66 | 143721 | 157211
18 | 34:56.12 | 3:45.68 | 157212 | 174154
19 | 38:42.05 | 1:18.64 | 174155 | 180068
20 | 40:00.69 | 0:40.66 | 180069 | 183134
21 | 40:41.60 | 1:38.24 | 183135 | 190508
22 | 42:20.09 | 0:59.20 | 190509 | 194953
23 | 43:19.29 | 0:58.74 | 194954 | 199377
24 | 44:18.28 | 1:21.07 | 199378 | 205459
25 | 45:39.35 | 1:16.21 | 205460 | 211180
26 | 46:55.56 | 2:47.72 | 211181 | 223777
27 | 49:43.53 | 3:32.63 | 223778 | 239740
28 | 53:16.41 | 2:40.06 | 239741 | 251746
29 | 55:56.47 | 2:13.61 | 251747 | 261782
30 | 58:10.33 | 0:53.58 | 261783 | 265815
31 | 59:04.16 | 3:11.23 | 265816 | 280163
32 | 62:15.39 | 0:50.00 | 280164 | 283913
33 | 63:05.39 | 0:58.71 | 283914 | 288334
34 | 64:04.35 | 1:08.06 | 288335 | 293440
35 | 65:12.41 | 1:49.74 | 293441 | 301689
36 | 67:02.40 | 2:48.37 | 301690 | 314326
37 | 69:51.02 | 2:25.17 | 314327 | 325218
38 | 72:16.19 | 2:17.28 | 325219 | 335521
39 | 74:33.47 | 0:54.10 | 335522 | 339581
40 | 75:27.57 | 1:03.73 | 339582 | 344379
41 | 76:31.55 | 1:44.54 | 344380 | 352233
42 | 78:16.34 | 2:39.46 | 352234 | 364204


Range status and errors

Selected range

Filename C:\CD Rips\Alain, Marie-Claire - L' Orgue Français - CD1.wav

Peak level 89.0 %
Extraction speed 8.7 X
Range quality 100.0 %
Copy CRC D7CBBA87
Copy OK

No errors occurred


AccurateRip summary

Track 1 accurately ripped (confidence 15) [EC8EEE5E] (AR v2)
Track 2 accurately ripped (confidence 15) [6B31D7A3] (AR v2)
Track 3 accurately ripped (confidence 15) [99B9B5BA] (AR v2)
Track 4 accurately ripped (confidence 15) [B0F9E6ED] (AR v2)
Track 5 accurately ripped (confidence 15) [355BB99C] (AR v2)
Track 6 accurately ripped (confidence 15) [E8BC5167] (AR v2)
Track 7 accurately ripped (confidence 15) [191A8AA5] (AR v2)
Track 8 accurately ripped (confidence 15) [9C42E446] (AR v2)
Track 9 accurately ripped (confidence 15) [266D3AA6] (AR v2)
Track 10 accurately ripped (confidence 15) [9DE65A1C] (AR v2)
Track 11 accurately ripped (confidence 15) [F735E3D7] (AR v2)
Track 12 accurately ripped (confidence 15) [51DF14A7] (AR v2)
Track 13 accurately ripped (confidence 15) [8CA612AC] (AR v2)
Track 14 accurately ripped (confidence 15) [CF41384E] (AR v2)
Track 15 accurately ripped (confidence 15) [4CD5B271] (AR v2)
Track 16 accurately ripped (confidence 15) [25C1AF9A] (AR v2)
Track 17 accurately ripped (confidence 15) [CB9FD943] (AR v2)
Track 18 accurately ripped (confidence 15) [44B2D9D8] (AR v2)
Track 19 accurately ripped (confidence 15) [7E4D6D83] (AR v2)
Track 20 accurately ripped (confidence 15) [F584379F] (AR v2)
Track 21 accurately ripped (confidence 15) [83755EBA] (AR v2)
Track 22 accurately ripped (confidence 15) [0006BC33] (AR v2)
Track 23 accurately ripped (confidence 15) [10A9497F] (AR v2)
Track 24 accurately ripped (confidence 15) [B3DA7D4E] (AR v2)
Track 25 accurately ripped (confidence 15) [789C2D68] (AR v2)
Track 26 accurately ripped (confidence 15) [949DDE5D] (AR v2)
Track 27 accurately ripped (confidence 15) [A84351EB] (AR v2)
Track 28 accurately ripped (confidence 15) [A0D3AB90] (AR v2)
Track 29 accurately ripped (confidence 15) [97E4BF9F] (AR v2)
Track 30 accurately ripped (confidence 15) [52AFC0AF] (AR v2)
Track 31 accurately ripped (confidence 15) [B6B1FD44] (AR v2)
Track 32 accurately ripped (confidence 15) [CAD0C742] (AR v2)
Track 33 accurately ripped (confidence 15) [5425BDE7] (AR v2)
Track 34 accurately ripped (confidence 15) [C053293C] (AR v2)
Track 35 accurately ripped (confidence 15) [D5198F1C] (AR v2)
Track 36 accurately ripped (confidence 15) [28FDFC79] (AR v2)
Track 37 accurately ripped (confidence 15) [9F1FB162] (AR v2)
Track 38 accurately ripped (confidence 15) [77E94D71] (AR v2)
Track 39 accurately ripped (confidence 15) [129A5B1C] (AR v2)
Track 40 accurately ripped (confidence 14) [FD7A7900] (AR v2)
Track 41 accurately ripped (confidence 14) [29063ED6] (AR v2)
Track 42 accurately ripped (confidence 14) [F97548D1] (AR v2)

All tracks accurately ripped

End of status report

–– CUETools DB Plugin V2.1.6

[CTDB TOCID: hHrFRa8fkoXQZC.whyaOIWxtfyQ-] found
Submit result: hHrFRa8fkoXQZC.whyaOIWxtfyQ- has been confirmed
Track | CTDB Status
1 | (31/31) Accurately ripped
2 | (31/31) Accurately ripped
3 | (31/31) Accurately ripped
4 | (31/31) Accurately ripped
5 | (31/31) Accurately ripped
6 | (31/31) Accurately ripped
7 | (31/31) Accurately ripped
8 | (31/31) Accurately ripped
9 | (31/31) Accurately ripped
10 | (31/31) Accurately ripped
11 | (31/31) Accurately ripped
12 | (31/31) Accurately ripped
13 | (31/31) Accurately ripped
14 | (31/31) Accurately ripped
15 | (31/31) Accurately ripped
16 | (31/31) Accurately ripped
17 | (31/31) Accurately ripped
18 | (31/31) Accurately ripped
19 | (31/31) Accurately ripped
20 | (31/31) Accurately ripped
21 | (31/31) Accurately ripped
22 | (31/31) Accurately ripped
23 | (31/31) Accurately ripped
24 | (31/31) Accurately ripped
25 | (31/31) Accurately ripped
26 | (31/31) Accurately ripped
27 | (31/31) Accurately ripped
28 | (31/31) Accurately ripped
29 | (31/31) Accurately ripped
30 | (31/31) Accurately ripped
31 | (31/31) Accurately ripped
32 | (30/31) Accurately ripped
33 | (31/31) Accurately ripped
34 | (31/31) Accurately ripped
35 | (31/31) Accurately ripped
36 | (31/31) Accurately ripped
37 | (31/31) Accurately ripped
38 | (31/31) Accurately ripped
39 | (31/31) Accurately ripped
40 | (31/31) Accurately ripped
41 | (31/31) Accurately ripped
42 | (31/31) Accurately ripped


==== Log checksum 1DEED62E4F9485459370446099D4A503B2B8A5C3AF3A56FED6C67E14B5DFA313 ====


Exact Audio Copy V1.6 from 23. October 2020

EAC extraction logfile from 29. March 2022, 16:02

- / L'Orgue Français - CD2

Used drive : ASUS BW-12D1S-U Adapter: 1 ID: 0

Read mode : Secure
Utilize accurate stream : Yes
Defeat audio cache : Yes
Make use of C2 pointers : No

Read offset correction : 667
Overread into Lead-In and Lead-Out : No
Fill up missing offset samples with silence : Yes
Delete leading and trailing silent blocks : No
Null samples used in CRC calculations : Yes
Used interface : Native Win32 interface for Win NT & 2000

Used output format : User Defined Encoder
Selected bitrate : 1024 kBit/s
Quality : High
Add ID3 tag : No
Command line compressor : C:\Program Files (x86)\Exact Audio Copy\FLAC\FLAC.EXE
Additional command line options : -6 -V -T "ARTIST=%artist%" -T "TITLE=%title%" -T "ALBUM=%albumtitle%" -T "DATE=%year%" -T "TRACKNUMBER=%tracknr%" -T "GENRE=%genre%" -T "COMMENT=%comment%" -T "BAND=%albuminterpret%" -T "ALBUMARTIST=%albuminterpret%" -T "COMPOSER=%composer%" %haslyrics%–tag-from-file=LYRICS="%lyricsfile%"%haslyrics% -T "DISCNUMBER=%cdnumber%" -T "TOTALDISCS=%totalcds%" -T "TOTALTRACKS=%numtracks%" %hascover%–picture="%coverfile%"%hascover% %source% -o %dest%


TOC of the extracted CD

Track | Start | Length | Start sector | End sector
––––––––––––––––––––––––––––-
1 | 0:00.00 | 2:36.74 | 0 | 11773
2 | 2:36.74 | 1:51.26 | 11774 | 20124
3 | 4:28.25 | 2:11.67 | 20125 | 30016
4 | 6:40.17 | 2:46.68 | 30017 | 42534
5 | 9:27.10 | 2:03.30 | 42535 | 51789
6 | 11:30.40 | 1:57.40 | 51790 | 60604
7 | 13:28.05 | 2:07.19 | 60605 | 70148
8 | 15:35.24 | 0:49.50 | 70149 | 73873
9 | 16:24.74 | 1:53.11 | 73874 | 82359
10 | 18:18.10 | 2:01.20 | 82360 | 91454
11 | 20:19.30 | 2:54.45 | 91455 | 104549
12 | 23:14.00 | 2:12.55 | 104550 | 114504
13 | 25:26.55 | 1:37.59 | 114505 | 121838
14 | 27:04.39 | 2:24.29 | 121839 | 132667
15 | 29:28.68 | 1:58.15 | 132668 | 141532
16 | 31:27.08 | 5:48.06 | 141533 | 167638
17 | 37:15.14 | 0:53.66 | 167639 | 171679
18 | 38:09.05 | 1:08.30 | 171680 | 176809
19 | 39:17.35 | 1:25.72 | 176810 | 183256
20 | 40:43.32 | 3:09.08 | 183257 | 197439
21 | 43:52.40 | 1:23.56 | 197440 | 203720
22 | 45:16.21 | 1:25.47 | 203721 | 210142
23 | 46:41.68 | 1:42.65 | 210143 | 217857
24 | 48:24.58 | 2:04.63 | 217858 | 227220
25 | 50:29.46 | 1:32.41 | 227221 | 234161
26 | 52:02.12 | 8:44.53 | 234162 | 273514
27 | 60:46.65 | 1:53.64 | 273515 | 282053
28 | 62:40.54 | 2:27.44 | 282054 | 293122
29 | 65:08.23 | 0:51.16 | 293123 | 296963
30 | 65:59.39 | 2:47.11 | 296964 | 309499
31 | 68:46.50 | 1:26.01 | 309500 | 315950
32 | 70:12.51 | 2:12.01 | 315951 | 325851
33 | 72:24.52 | 1:20.26 | 325852 | 331877
34 | 73:45.03 | 1:21.14 | 331878 | 337966
35 | 75:06.17 | 1:48.20 | 337967 | 346086
36 | 76:54.37 | 2:58.72 | 346087 | 359508


Range status and errors

Selected range

Filename C:\CD Rips\L'Orgue Français - CD2.wav

Peak level 97.8 %
Extraction speed 8.6 X
Range quality 99.9 %
Copy CRC 4CDC30CD
Copy OK

No errors occurred


AccurateRip summary

Track 1 accurately ripped (confidence 10) [059088C9] (AR v2)
Track 2 accurately ripped (confidence 10) [03325D5A] (AR v2)
Track 3 accurately ripped (confidence 10) [F7BC2A5B] (AR v2)
Track 4 accurately ripped (confidence 10) [E813E937] (AR v2)
Track 5 accurately ripped (confidence 10) [16D42DC3] (AR v2)
Track 6 accurately ripped (confidence 10) [02DAB8C6] (AR v2)
Track 7 accurately ripped (confidence 10) [5860504F] (AR v2)
Track 8 accurately ripped (confidence 11) [FDD24528] (AR v2)
Track 9 accurately ripped (confidence 11) [3F61A2DC] (AR v2)
Track 10 accurately ripped (confidence 11) [598FE508] (AR v2)
Track 11 accurately ripped (confidence 11) [86622EC4] (AR v2)
Track 12 accurately ripped (confidence 11) [E01167BD] (AR v2)
Track 13 accurately ripped (confidence 11) [75A5D8C3] (AR v2)
Track 14 accurately ripped (confidence 10) [4E2D3084] (AR v2)
Track 15 accurately ripped (confidence 11) [EE4D470B] (AR v2)
Track 16 accurately ripped (confidence 11) [027AEF24] (AR v2)
Track 17 accurately ripped (confidence 11) [20580D1D] (AR v2)
Track 18 accurately ripped (confidence 11) [A029F9EC] (AR v2)
Track 19 accurately ripped (confidence 11) [2128E090] (AR v2)
Track 20 accurately ripped (confidence 11) [3D4CBAEC] (AR v2)
Track 21 accurately ripped (confidence 11) [42ABFDB1] (AR v2)
Track 22 accurately ripped (confidence 11) [46CC8E34] (AR v2)
Track 23 accurately ripped (confidence 11) [E6FF4D84] (AR v2)
Track 24 accurately ripped (confidence 11) [9FB4DFAA] (AR v2)
Track 25 accurately ripped (confidence 11) [F4A74CBC] (AR v2)
Track 26 accurately ripped (confidence 11) [C79CF6C7] (AR v2)
Track 27 accurately ripped (confidence 11) [60672C99] (AR v2)
Track 28 accurately ripped (confidence 11) [9D197743] (AR v2)
Track 29 accurately ripped (confidence 11) [274D9224] (AR v2)
Track 30 accurately ripped (confidence 11) [7D4D63E0] (AR v2)
Track 31 accurately ripped (confidence 11) [62D86F9C] (AR v2)
Track 32 accurately ripped (confidence 11) [61A75FFD] (AR v2)
Track 33 accurately ripped (confidence 11) [69BF1A50] (AR v2)
Track 34 accurately ripped (confidence 11) [38DBA3A0] (AR v2)
Track 35 accurately ripped (confidence 11) [081E38A5] (AR v2)
Track 36 accurately ripped (confidence 10) [5CCC70F2] (AR v2)

All tracks accurately ripped

End of status report

–– CUETools DB Plugin V2.1.6

[CTDB TOCID: LpA..CshhfEVGktusk9YFo3mbSI-] found
Submit result: LpA..CshhfEVGktusk9YFo3mbSI- has been confirmed
Track | CTDB Status
1 | (29/29) Accurately ripped
2 | (28/29) Accurately ripped
3 | (28/29) Accurately ripped
4 | (28/29) Accurately ripped
5 | (28/29) Accurately ripped
6 | (28/29) Accurately ripped
7 | (28/29) Accurately ripped
8 | (29/29) Accurately ripped
9 | (29/29) Accurately ripped
10 | (29/29) Accurately ripped
11 | (29/29) Accurately ripped
12 | (29/29) Accurately ripped
13 | (29/29) Accurately ripped
14 | (28/29) Accurately ripped
15 | (29/29) Accurately ripped
16 | (29/29) Accurately ripped
17 | (29/29) Accurately ripped
18 | (29/29) Accurately ripped
19 | (29/29) Accurately ripped
20 | (29/29) Accurately ripped
21 | (29/29) Accurately ripped
22 | (29/29) Accurately ripped
23 | (29/29) Accurately ripped
24 | (29/29) Accurately ripped
25 | (29/29) Accurately ripped
26 | (29/29) Accurately ripped
27 | (29/29) Accurately ripped
28 | (29/29) Accurately ripped
29 | (29/29) Accurately ripped
30 | (29/29) Accurately ripped
31 | (29/29) Accurately ripped
32 | (28/29) Accurately ripped
33 | (28/29) Accurately ripped
34 | (28/29) Accurately ripped
35 | (28/29) Accurately ripped
36 | (27/29) Accurately ripped


==== Log checksum BAA2B878AD15FB269C6B5B8B80AD30F4DA3A53DBA7AFCF70177614E3F0CC7ABB ====


Exact Audio Copy V1.6 from 23. October 2020

EAC extraction logfile from 29. March 2022, 16:15

- / L'Orgue Français - CD3

Used drive : ASUS BW-12D1S-U Adapter: 1 ID: 0

Read mode : Secure
Utilize accurate stream : Yes
Defeat audio cache : Yes
Make use of C2 pointers : No

Read offset correction : 667
Overread into Lead-In and Lead-Out : No
Fill up missing offset samples with silence : Yes
Delete leading and trailing silent blocks : No
Null samples used in CRC calculations : Yes
Used interface : Native Win32 interface for Win NT & 2000

Used output format : User Defined Encoder
Selected bitrate : 1024 kBit/s
Quality : High
Add ID3 tag : No
Command line compressor : C:\Program Files (x86)\Exact Audio Copy\FLAC\FLAC.EXE
Additional command line options : -6 -V -T "ARTIST=%artist%" -T "TITLE=%title%" -T "ALBUM=%albumtitle%" -T "DATE=%year%" -T "TRACKNUMBER=%tracknr%" -T "GENRE=%genre%" -T "COMMENT=%comment%" -T "BAND=%albuminterpret%" -T "ALBUMARTIST=%albuminterpret%" -T "COMPOSER=%composer%" %haslyrics%–tag-from-file=LYRICS="%lyricsfile%"%haslyrics% -T "DISCNUMBER=%cdnumber%" -T "TOTALDISCS=%totalcds%" -T "TOTALTRACKS=%numtracks%" %hascover%–picture="%coverfile%"%hascover% %source% -o %dest%


TOC of the extracted CD

Track | Start | Length | Start sector | End sector
––––––––––––––––––––––––––––-
1 | 0:00.00 | 2:20.58 | 0 | 10557
2 | 2:20.58 | 2:59.32 | 10558 | 24014
3 | 5:20.15 | 2:57.08 | 24015 | 37297
4 | 8:17.23 | 2:50.52 | 37298 | 50099
5 | 11:08.00 | 1:07.73 | 50100 | 55197
6 | 12:15.73 | 1:46.65 | 55198 | 63212
7 | 14:02.63 | 1:14.50 | 63213 | 68812
8 | 15:17.38 | 2:17.62 | 68813 | 79149
9 | 17:35.25 | 3:24.62 | 79150 | 94511
10 | 21:00.12 | 2:53.72 | 94512 | 107558
11 | 23:54.09 | 4:08.38 | 107559 | 126196
12 | 28:02.47 | 2:53.02 | 126197 | 139173
13 | 30:55.49 | 3:40.03 | 139174 | 155676
14 | 34:35.52 | 1:48.30 | 155677 | 163806
15 | 36:24.07 | 3:05.59 | 163807 | 177740
16 | 39:29.66 | 7:59.65 | 177741 | 213730
17 | 47:29.56 | 2:47.40 | 213731 | 226295
18 | 50:17.21 | 2:19.67 | 226296 | 236787
19 | 52:37.13 | 3:18.09 | 236788 | 251646
20 | 55:55.22 | 1:26.72 | 251647 | 258168
21 | 57:22.19 | 2:57.12 | 258169 | 271455
22 | 60:19.31 | 2:33.11 | 271456 | 282941
23 | 62:52.42 | 1:26.39 | 282942 | 289430
24 | 64:19.06 | 1:58.43 | 289431 | 298323
25 | 66:17.49 | 11:39.56 | 298324 | 350804


Range status and errors

Selected range

Filename C:\CD Rips\L'Orgue Français - CD3.wav

Peak level 85.4 %
Extraction speed 8.6 X
Range quality 100.0 %
Copy CRC AD540755
Copy OK

No errors occurred


AccurateRip summary

Track 1 accurately ripped (confidence 13) [9EA415E5] (AR v2)
Track 2 accurately ripped (confidence 14) [E9461792] (AR v2)
Track 3 accurately ripped (confidence 14) [890C1198] (AR v2)
Track 4 accurately ripped (confidence 14) [0C2284FD] (AR v2)
Track 5 accurately ripped (confidence 14) [49018EAF] (AR v2)
Track 6 accurately ripped (confidence 14) [C4B3E3CA] (AR v2)
Track 7 accurately ripped (confidence 14) [90AC3DC8] (AR v2)
Track 8 accurately ripped (confidence 14) [E9E7B5F3] (AR v2)
Track 9 accurately ripped (confidence 13) [2D5E9DA3] (AR v2)
Track 10 accurately ripped (confidence 13) [5F422572] (AR v2)
Track 11 accurately ripped (confidence 14) [C3851E6F] (AR v2)
Track 12 accurately ripped (confidence 14) [3BE2602F] (AR v2)
Track 13 accurately ripped (confidence 13) [4E24DAE9] (AR v2)
Track 14 accurately ripped (confidence 13) [E1D3501A] (AR v2)
Track 15 accurately ripped (confidence 14) [A04299F0] (AR v2)
Track 16 accurately ripped (confidence 14) [31A2B54F] (AR v2)
Track 17 accurately ripped (confidence 14) [1024A7E4] (AR v2)
Track 18 accurately ripped (confidence 14) [E83B219F] (AR v2)
Track 19 accurately ripped (confidence 14) [3573CA29] (AR v2)
Track 20 accurately ripped (confidence 14) [5B650204] (AR v2)
Track 21 accurately ripped (confidence 14) [3E7B2962] (AR v2)
Track 22 accurately ripped (confidence 14) [A5B16E83] (AR v2)
Track 23 accurately ripped (confidence 14) [59A2994F] (AR v2)
Track 24 accurately ripped (confidence 14) [18D65F41] (AR v2)
Track 25 accurately ripped (confidence 14) [DF2E6CF5] (AR v2)

All tracks accurately ripped

End of status report

–– CUETools DB Plugin V2.1.6

[CTDB TOCID: 0VMsevJStluvk4YGrh93VVaMGjM-] found
Submit result: 0VMsevJStluvk4YGrh93VVaMGjM- has been confirmed
Track | CTDB Status
1 | (30/31) Accurately ripped
2 | (31/31) Accurately ripped
3 | (31/31) Accurately ripped
4 | (31/31) Accurately ripped
5 | (31/31) Accurately ripped
6 | (31/31) Accurately ripped
7 | (31/31) Accurately ripped
8 | (31/31) Accurately ripped
9 | (30/31) Accurately ripped
10 | (30/31) Accurately ripped
11 | (31/31) Accurately ripped
12 | (31/31) Accurately ripped
13 | (30/31) Accurately ripped
14 | (30/31) Accurately ripped
15 | (31/31) Accurately ripped
16 | (31/31) Accurately ripped
17 | (31/31) Accurately ripped
18 | (31/31) Accurately ripped
19 | (30/31) Accurately ripped
20 | (30/31) Accurately ripped
21 | (30/31) Accurately ripped
22 | (30/31) Accurately ripped
23 | (30/31) Accurately ripped
24 | (29/31) Accurately ripped
25 | (29/31) Accurately ripped


==== Log checksum 7E1BBA1BD579B76BDEE3EA994CB8A139A10D1EAD2C2CCBD19328E827AC863B2F ====


Exact Audio Copy V1.6 from 23. October 2020

EAC extraction logfile from 29. March 2022, 16:27

Alain, Marie-Claire / L'Orgue Français - CD 4

Used drive : ASUS BW-12D1S-U Adapter: 1 ID: 0

Read mode : Secure
Utilize accurate stream : Yes
Defeat audio cache : Yes
Make use of C2 pointers : No

Read offset correction : 667
Overread into Lead-In and Lead-Out : No
Fill up missing offset samples with silence : Yes
Delete leading and trailing silent blocks : No
Null samples used in CRC calculations : Yes
Used interface : Native Win32 interface for Win NT & 2000

Used output format : User Defined Encoder
Selected bitrate : 1024 kBit/s
Quality : High
Add ID3 tag : No
Command line compressor : C:\Program Files (x86)\Exact Audio Copy\FLAC\FLAC.EXE
Additional command line options : -6 -V -T "ARTIST=%artist%" -T "TITLE=%title%" -T "ALBUM=%albumtitle%" -T "DATE=%year%" -T "TRACKNUMBER=%tracknr%" -T "GENRE=%genre%" -T "COMMENT=%comment%" -T "BAND=%albuminterpret%" -T "ALBUMARTIST=%albuminterpret%" -T "COMPOSER=%composer%" %haslyrics%–tag-from-file=LYRICS="%lyricsfile%"%haslyrics% -T "DISCNUMBER=%cdnumber%" -T "TOTALDISCS=%totalcds%" -T "TOTALTRACKS=%numtracks%" %hascover%–picture="%coverfile%"%hascover% %source% -o %dest%


TOC of the extracted CD

Track | Start | Length | Start sector | End sector
––––––––––––––––––––––––––––-
1 | 0:00.00 | 2:30.16 | 0 | 11265
2 | 2:30.16 | 3:18.45 | 11266 | 26160
3 | 5:48.61 | 3:39.07 | 26161 | 42592
4 | 9:27.68 | 3:00.50 | 42593 | 56142
5 | 12:28.43 | 3:09.33 | 56143 | 70350
6 | 15:38.01 | 2:01.50 | 70351 | 79475
7 | 17:39.51 | 1:31.45 | 79476 | 86345
8 | 19:11.21 | 2:49.34 | 86346 | 99054
9 | 22:00.55 | 3:50.45 | 99055 | 116349
10 | 25:51.25 | 5:41.11 | 116350 | 141935
11 | 31:32.36 | 3:15.55 | 141936 | 156615
12 | 34:48.16 | 3:13.17 | 156616 | 171107
13 | 38:01.33 | 2:51.62 | 171108 | 183994
14 | 40:53.20 | 3:24.70 | 183995 | 199364
15 | 44:18.15 | 6:58.16 | 199365 | 230730
16 | 51:16.31 | 2:26.55 | 230731 | 241735
17 | 53:43.11 | 2:36.52 | 241736 | 253487
18 | 56:19.63 | 3:31.31 | 253488 | 269343
19 | 59:51.19 | 2:14.10 | 269344 | 279403
20 | 62:05.29 | 2:25.22 | 279404 | 290300
21 | 64:30.51 | 3:46.67 | 290301 | 307317
22 | 68:17.43 | 2:59.65 | 307318 | 320807
23 | 71:17.33 | 1:42.33 | 320808 | 328490
24 | 72:59.66 | 1:56.69 | 328491 | 337259


Range status and errors

Selected range

Filename C:\CD Rips\Alain, Marie-Claire - L'Orgue Français - CD 4.wav

Peak level 85.8 %
Extraction speed 8.6 X
Range quality 100.0 %
Copy CRC 7F0CA46B
Copy OK

No errors occurred


AccurateRip summary

Track 1 accurately ripped (confidence 14) [73FD20B7] (AR v2)
Track 2 accurately ripped (confidence 14) [455918E2] (AR v2)
Track 3 accurately ripped (confidence 14) [25CA07B4] (AR v2)
Track 4 accurately ripped (confidence 14) [57A45510] (AR v2)
Track 5 accurately ripped (confidence 14) [FF995603] (AR v2)
Track 6 accurately ripped (confidence 14) [2F1DA08A] (AR v2)
Track 7 accurately ripped (confidence 14) [B97ABAE5] (AR v2)
Track 8 accurately ripped (confidence 14) [F6E75F1D] (AR v2)
Track 9 accurately ripped (confidence 14) [2324B38B] (AR v2)
Track 10 accurately ripped (confidence 14) [6A258EEB] (AR v2)
Track 11 accurately ripped (confidence 14) [41CF4D7B] (AR v2)
Track 12 accurately ripped (confidence 14) [09797B16] (AR v2)
Track 13 accurately ripped (confidence 14) [0EC3497F] (AR v2)
Track 14 accurately ripped (confidence 14) [0D29F9C8] (AR v2)
Track 15 accurately ripped (confidence 14) [E5791AA5] (AR v2)
Track 16 accurately ripped (confidence 14) [064EDD08] (AR v2)
Track 17 accurately ripped (confidence 14) [800B94CC] (AR v2)
Track 18 accurately ripped (confidence 14) [FA85C5A3] (AR v2)
Track 19 accurately ripped (confidence 14) [414A655F] (AR v2)
Track 20 accurately ripped (confidence 14) [D8B93CC7] (AR v2)
Track 21 accurately ripped (confidence 14) [8733CD5D] (AR v2)
Track 22 accurately ripped (confidence 14) [D22BBE6E] (AR v2)
Track 23 accurately ripped (confidence 14) [983E658F] (AR v2)
Track 24 accurately ripped (confidence 14) [1BDDEA0B] (AR v2)

All tracks accurately ripped

End of status report

–– CUETools DB Plugin V2.1.6

[CTDB TOCID: z8xuGtiqlPamphSFaR2y3lAnckI-] found
Submit result: z8xuGtiqlPamphSFaR2y3lAnckI- has been confirmed
Track | CTDB Status
1 | (31/31) Accurately ripped
2 | (31/31) Accurately ripped
3 | (31/31) Accurately ripped
4 | (31/31) Accurately ripped
5 | (31/31) Accurately ripped
6 | (31/31) Accurately ripped
7 | (31/31) Accurately ripped
8 | (31/31) Accurately ripped
9 | (31/31) Accurately ripped
10 | (31/31) Accurately ripped
11 | (31/31) Accurately ripped
12 | (31/31) Accurately ripped
13 | (31/31) Accurately ripped
14 | (31/31) Accurately ripped
15 | (31/31) Accurately ripped
16 | (30/31) Accurately ripped
17 | (30/31) Accurately ripped
18 | (30/31) Accurately ripped
19 | (30/31) Accurately ripped
20 | (30/31) Accurately ripped
21 | (30/31) Accurately ripped
22 | (29/31) Accurately ripped
23 | (30/31) Accurately ripped
24 | (29/31) Accurately ripped


==== Log checksum C0264DD388D620E0EF0BD7588EE467D94C2B48967A4D09D4928BF28FA264D4AB ====


Exact Audio Copy V1.6 from 23. October 2020

EAC extraction logfile from 29. March 2022, 16:39

Alain, Marie-Claire / L'Orgue Français - CD 5

Used drive : ASUS BW-12D1S-U Adapter: 1 ID: 0

Read mode : Secure
Utilize accurate stream : Yes
Defeat audio cache : Yes
Make use of C2 pointers : No

Read offset correction : 667
Overread into Lead-In and Lead-Out : No
Fill up missing offset samples with silence : Yes
Delete leading and trailing silent blocks : No
Null samples used in CRC calculations : Yes
Used interface : Native Win32 interface for Win NT & 2000

Used output format : User Defined Encoder
Selected bitrate : 1024 kBit/s
Quality : High
Add ID3 tag : No
Command line compressor : C:\Program Files (x86)\Exact Audio Copy\FLAC\FLAC.EXE
Additional command line options : -6 -V -T "ARTIST=%artist%" -T "TITLE=%title%" -T "ALBUM=%albumtitle%" -T "DATE=%year%" -T "TRACKNUMBER=%tracknr%" -T "GENRE=%genre%" -T "COMMENT=%comment%" -T "BAND=%albuminterpret%" -T "ALBUMARTIST=%albuminterpret%" -T "COMPOSER=%composer%" %haslyrics%–tag-from-file=LYRICS="%lyricsfile%"%haslyrics% -T "DISCNUMBER=%cdnumber%" -T "TOTALDISCS=%totalcds%" -T "TOTALTRACKS=%numtracks%" %hascover%–picture="%coverfile%"%hascover% %source% -o %dest%


TOC of the extracted CD

Track | Start | Length | Start sector | End sector
––––––––––––––––––––––––––––-
1 | 0:00.00 | 2:55.06 | 0 | 13130
2 | 2:55.06 | 3:04.07 | 13131 | 26937
3 | 5:59.13 | 3:15.65 | 26938 | 41627
4 | 9:15.03 | 3:33.54 | 41628 | 57656
5 | 12:48.57 | 4:03.48 | 57657 | 75929
6 | 16:52.30 | 3:28.37 | 75930 | 91566
7 | 20:20.67 | 3:52.31 | 91567 | 108997
8 | 24:13.23 | 4:00.37 | 108998 | 127034
9 | 28:13.60 | 2:07.37 | 127035 | 136596
10 | 30:21.22 | 2:24.72 | 136597 | 147468
11 | 32:46.19 | 3:20.58 | 147469 | 162526
12 | 36:07.02 | 2:14.20 | 162527 | 172596
13 | 38:21.22 | 1:58.41 | 172597 | 181487
14 | 40:19.63 | 3:27.14 | 181488 | 197026
15 | 43:47.02 | 2:26.34 | 197027 | 208010
16 | 46:13.36 | 3:47.64 | 208011 | 225099
17 | 50:01.25 | 2:06.34 | 225100 | 234583
18 | 52:07.59 | 3:34.71 | 234584 | 250704
19 | 55:42.55 | 2:27.25 | 250705 | 261754
20 | 58:10.05 | 3:53.32 | 261755 | 279261
21 | 62:03.37 | 1:23.69 | 279262 | 285555
22 | 63:27.31 | 1:36.15 | 285556 | 292770
23 | 65:03.46 | 3:00.49 | 292771 | 306319
24 | 68:04.20 | 2:20.44 | 306320 | 316863
25 | 70:24.64 | 1:34.15 | 316864 | 323928
26 | 71:59.04 | 2:51.05 | 323929 | 336758
27 | 74:50.09 | 1:53.36 | 336759 | 345269
28 | 76:43.45 | 2:23.44 | 345270 | 356038


Range status and errors

Selected range

Filename C:\CD Rips\Alain, Marie-Claire - L'Orgue Français - CD 5.wav

Peak level 85.0 %
Extraction speed 8.7 X
Range quality 100.0 %
Copy CRC AAB31390
Copy OK

No errors occurred


AccurateRip summary

Track 1 accurately ripped (confidence 13) [D1F512E7] (AR v2)
Track 2 accurately ripped (confidence 13) [C7EA0168] (AR v2)
Track 3 accurately ripped (confidence 13) [5DFCDE99] (AR v2)
Track 4 accurately ripped (confidence 13) [30D8C4C9] (AR v2)
Track 5 accurately ripped (confidence 13) [F0D4EFA0] (AR v2)
Track 6 accurately ripped (confidence 13) [853AEBA8] (AR v2)
Track 7 accurately ripped (confidence 13) [39D266E7] (AR v2)
Track 8 accurately ripped (confidence 13) [28886FDE] (AR v2)
Track 9 accurately ripped (confidence 13) [3871CB24] (AR v2)
Track 10 accurately ripped (confidence 13) [0CC62CBA] (AR v2)
Track 11 accurately ripped (confidence 13) [D54DF537] (AR v2)
Track 12 accurately ripped (confidence 13) [9C327197] (AR v2)
Track 13 accurately ripped (confidence 13) [2485DECB] (AR v2)
Track 14 accurately ripped (confidence 13) [9A522BDA] (AR v2)
Track 15 accurately ripped (confidence 13) [6D2A02A7] (AR v2)
Track 16 accurately ripped (confidence 13) [354DCE01] (AR v2)
Track 17 accurately ripped (confidence 13) [91FE5D7B] (AR v2)
Track 18 accurately ripped (confidence 13) [DDF6C252] (AR v2)
Track 19 accurately ripped (confidence 13) [1F7DFFB5] (AR v2)
Track 20 accurately ripped (confidence 13) [8D7835AF] (AR v2)
Track 21 accurately ripped (confidence 13) [A9B764B1] (AR v2)
Track 22 accurately ripped (confidence 13) [C5E81B7E] (AR v2)
Track 23 accurately ripped (confidence 13) [B9ACF9D8] (AR v2)
Track 24 accurately ripped (confidence 13) [E2C9AD4E] (AR v2)
Track 25 accurately ripped (confidence 13) [59E1D161] (AR v2)
Track 26 accurately ripped (confidence 13) [F09ECD5A] (AR v2)
Track 27 accurately ripped (confidence 13) [01A08B2F] (AR v2)
Track 28 accurately ripped (confidence 13) [93F72F82] (AR v2)

All tracks accurately ripped

End of status report

–– CUETools DB Plugin V2.1.6

[CTDB TOCID: CkXmypLzrBGAnPrSu2eaCGlhfKQ-] found
Submit result: CkXmypLzrBGAnPrSu2eaCGlhfKQ- has been confirmed
Track | CTDB Status
1 | (28/28) Accurately ripped
2 | (28/28) Accurately ripped
3 | (28/28) Accurately ripped
4 | (28/28) Accurately ripped
5 | (28/28) Accurately ripped
6 | (28/28) Accurately ripped
7 | (28/28) Accurately ripped
8 | (28/28) Accurately ripped
9 | (28/28) Accurately ripped
10 | (28/28) Accurately ripped
11 | (28/28) Accurately ripped
12 | (28/28) Accurately ripped
13 | (28/28) Accurately ripped
14 | (28/28) Accurately ripped
15 | (28/28) Accurately ripped
16 | (28/28) Accurately ripped
17 | (28/28) Accurately ripped
18 | (28/28) Accurately ripped
19 | (28/28) Accurately ripped
20 | (28/28) Accurately ripped
21 | (28/28) Accurately ripped
22 | (28/28) Accurately ripped
23 | (28/28) Accurately ripped
24 | (28/28) Accurately ripped
25 | (28/28) Accurately ripped
26 | (28/28) Accurately ripped
27 | (28/28) Accurately ripped
28 | (28/28) Accurately ripped


==== Log checksum A48650EDE8FD48D41B461B1DCC2355A1BCDC9BF6A6FD8F276EAB31BAB29F0B3D ====


Marie-Claire Alain - L'Orgue Français [22CDs] (2014)

Thanks to the original releaser