Tags
Language
Tags

La Suave Melodia - Johannes Schenck: Il Giardino Armonico, 12 Trio Sonatas Opus III (2007) (Repost)

Posted By:
La Suave Melodia - Johannes Schenck: Il Giardino Armonico, 12 Trio Sonatas Opus III (2007) (Repost)

La Suave Melodia - Johannes Schenck: Il Giardino Armonico, 12 Trio Sonatas Opus III (2007)
EAC | WavPack (image+.cue, log) | Covers Included | 01:18:56 | 447 MB
Genre: Classical | Label: Et'cetera | Catalog: KTC 1356

Dutch-born composer Johannes Schenck is another in a long line of Baroque composers whose works are only now being discovered and given their first modern performances. Thanks to the intrepid investigative work of harpsichordist Pieter Dirksen – a member of the ensemble La Suave Melodia heard here – a set of 12 trio sonatas of Schenck's Opus 3 that were thought to be lost have been unearthed. The works, which are each in a different key, show a mature composer's total command of form, character of different keys, and abilities of each instrument for which he is composing. Apart from the tremendous service of simply rediscovering these works, La Suave Melodia goes one step further and provides listeners with an immaculate, deeply satisfying performance of the 12 trio sonatas. The recorded sound is wonderfully clean and simple and the balance between the instruments allows the violin to easily carry the melody throughout while still letting listeners enjoy the intricate harmonies and rhythmically varied accompanimental patterns in the rest of the ensemble. Intonation, articulation, and ornamentation match flawlessly from the first note of the CD to the last. Fans of early music have found a treasure not only in the works of Johannes Schenck, but in the sensitive, informed performances of La Suave Melodia.

La Suave Melodia - Johannes Schenck: Il Giardino Armonico, 12 Trio Sonatas Opus III (2007) (Repost)

Track List:

01. Sonata Prima in D major (05:10)
Adagio - Allegro - Adagio - Allegro
02. Sonata Secunda in B-flat major (04:35)
Capriccio: Vivace - Adagio - Un poco allegro
03. Sonata Terza in G minor (11:13)
Adagio - Allegro
Violino 2 Solo: Adagio-Allegro - Adagio
Violino 1 solo: Adagio-Aria: Allegro
[Gigue] - Adagio
Allegro
04. Sonata Quarta in D minor (07:31)
Adagio - Allegro - Adagio con affetto -
Presto-Adagio-Presto-Adagio
05. Sonata Quinta in С minor (05:47)
Adagio - Allegro-Adagio - Presto-Adagio
06. Sonata Sexta in E major (03:56)
Vivace - Allegro - Adagio - Allegro
07. Sonata Settima in F major (05:25)
Adagio - Presto - Adagio - Allegro
08. Sonata Ottava in С major (09:29)
Adagio-Presto-Adagio-Presto-Adagio
Aria Violino I solo: Adagio-Allegro
Viola da gamba solo: Adagio
Allegro [Battaglia] - Violino 2 solo: Adagio
Prestissimo - Adagio - Allegro
09. Sonata Nona in A major (05:56)
Adagio - Allegro - Adagio - Allegro
10. Sonata Decima in В minor (05:27)
Adagio - Allegro - Adagio - Vivace
11. Sonata Undecima in A minor (05:31)
Adagio -Allegro - Adagio - Vivace [Gigue]
12. Sonata Duodecima in D minor (09:01)
Adagio - Allegro - Adagio tremolo
Violino 1 solo: Adagio-Allegro [Gigue] -
Adagio - Viola da gamba solo: Adagio
Adagio - Violino 2 solo: Adagio
Presto

Performers:
La Suave Melodia

Rachael Beesley - violin
Cassandra Luckhardt - viola da gamba
Regina Albanez - theorbo
Pieter Dirksen - harpsichord & organ

Exact Audio Copy V1.0 beta 2 from 29. April 2011

EAC extraction logfile from 7. October 2013, 19:48

La Suave Melodia / Johannes Schenck - Il Giardino Armonico; 12 Trio Sonatas Opus III

Used drive : HL-DT-STDVDRAM GH20NS10 Adapter: 4 ID: 0

Read mode : Secure
Utilize accurate stream : Yes
Defeat audio cache : Yes
Make use of C2 pointers : No

Read offset correction : 667
Overread into Lead-In and Lead-Out : No
Fill up missing offset samples with silence : Yes
Delete leading and trailing silent blocks : No
Null samples used in CRC calculations : Yes
Used interface : Installed external ASPI interface

Used output format : Internal WAV Routines
Sample format : 44.100 Hz; 16 Bit; Stereo


TOC of the extracted CD

Track | Start | Length | Start sector | End sector
––––––––––––––––––––––––––––-
1 | 0:00.00 | 5:09.59 | 0 | 23233
2 | 5:09.59 | 4:34.54 | 23234 | 43837
3 | 9:44.38 | 11:13.41 | 43838 | 94353
4 | 20:58.04 | 7:30.64 | 94354 | 128167
5 | 28:28.68 | 5:47.17 | 128168 | 154209
6 | 34:16.10 | 3:55.15 | 154210 | 171849
7 | 38:11.25 | 5:24.64 | 171850 | 196213
8 | 43:36.14 | 9:29.08 | 196214 | 238896
9 | 53:05.22 | 5:56.13 | 238897 | 265609
10 | 59:01.35 | 5:27.35 | 265610 | 290169
11 | 64:28.70 | 5:31.06 | 290170 | 315000
12 | 70:00.01 | 9:01.09 | 315001 | 355584


Range status and errors

Selected range

Filename Z:\NetLab\Schenck - Il Giardino Armonico; 12 Trio Sonatas Opus III (La Suave Melodia) (2007)\Schenck - Il Giardino Armonico; 12 Trio Sonatas Opus III.wav

Peak level 100.0 %
Extraction speed 6.8 X
Range quality 100.0 %
Test CRC CA7EB319
Copy CRC CA7EB319
Copy OK

No errors occurred


AccurateRip summary

Track 1 accurately ripped (confidence 3) [AE84379C] (AR v2)
Track 2 accurately ripped (confidence 3) [333444ED] (AR v2)
Track 3 accurately ripped (confidence 3) [70CB994C] (AR v2)
Track 4 accurately ripped (confidence 3) [AEBAB9E1] (AR v2)
Track 5 accurately ripped (confidence 3) [CC20D51E] (AR v2)
Track 6 accurately ripped (confidence 3) [E56E86E1] (AR v2)
Track 7 accurately ripped (confidence 3) [84C74906] (AR v2)
Track 8 accurately ripped (confidence 3) [BCFE535B] (AR v2)
Track 9 accurately ripped (confidence 3) [BF6589FA] (AR v2)
Track 10 accurately ripped (confidence 3) [4ECA0900] (AR v2)
Track 11 accurately ripped (confidence 3) [752B28F0] (AR v2)
Track 12 accurately ripped (confidence 3) [2DE7F98B] (AR v2)

All tracks accurately ripped

End of status report

==== Log checksum B6549FD0AB5CE52F66D9D4F9229F7B99F0E6EC816B3E03AB200DFA6CAD0DB6D3 ====

[CUETools log; Date: 10.10.2017 10:06:50; Version: 2.1.5]
[CTDB TOCID: Z6_olJV4aIJk5cegmYztcf04dmU-] found.
Track | CTDB Status
1 | (3/3) Accurately ripped
2 | (3/3) Accurately ripped
3 | (3/3) Accurately ripped
4 | (3/3) Accurately ripped
5 | (3/3) Accurately ripped
6 | (3/3) Accurately ripped
7 | (3/3) Accurately ripped
8 | (3/3) Accurately ripped
9 | (3/3) Accurately ripped
10 | (3/3) Accurately ripped
11 | (3/3) Accurately ripped
12 | (3/3) Accurately ripped
[AccurateRip ID: 0022bf0b-0144eee5-9812850c] found.
Track [ CRC | V2 ] Status
01 [3e3accc6|ae84379c] (03+07/10) Accurately ripped
02 [75e779a5|333444ed] (03+07/10) Accurately ripped
03 [4e3eb0e1|70cb994c] (03+07/10) Accurately ripped
04 [8a534f8d|aebab9e1] (03+07/10) Accurately ripped
05 [f1c7fd0d|cc20d51e] (03+07/10) Accurately ripped
06 [d6e46bb9|e56e86e1] (03+07/10) Accurately ripped
07 [2e34ed9f|84c74906] (03+07/10) Accurately ripped
08 [40de6d83|bcfe535b] (03+07/10) Accurately ripped
09 [f3dbd2b5|bf6589fa] (03+07/10) Accurately ripped
10 [c1cd906e|4eca0900] (03+07/10) Accurately ripped
11 [aeae9d4c|752b28f0] (03+07/10) Accurately ripped
12 [5fb8c887|2de7f98b] (03+07/10) Accurately ripped

Track Peak [ CRC32 ] [W/O NULL] [ LOG ]
– 100,0 [CA7EB319] [363A0097] CRC32
01 69,5 [D652E099] [27FD55A6]
02 78,2 [0084187A] [B2962E16]
03 75,9 [C9CD872C] [D4342802]
04 75,9 [480FFDE6] [987D5250]
05 78,2 [F6950028] [2744A4A8]
06 71,7 [441A7F1E] [52635972]
07 85,5 [CA7BA7E5] [B8614414]
08 100,0 [C764FEFE] [FE502D1B]
09 70,7 [24E10B9A] [91BA0DD6]
10 68,5 [B7239D6B] [D4D0FDDC]
11 77,1 [499A6E06] [C798C98B]
12 73,3 [A5E66E16] [77EBA164]

Thanks to the Original ripper (unknown)!

Download: