Tags
Language
Tags

Fabio Bonizzoni, La Risonanza, Roberta Invernizzi, Marina De Liso - Handel: Duetti da Camera (2014)

Posted By: ArlegZ
Fabio Bonizzoni, La Risonanza, Roberta Invernizzi, Marina De Liso - Handel: Duetti da Camera (2014)

Fabio Bonizzoni, La Risonanza, Roberta Invernizzi, Marina De Liso - Handel: Duetti da Camera (2014)
EAC | FLAC | Image (Cue & Log) ~ 366 Mb | Total time: 64:43 | Scans included
Classical | Label: Glossa | GCD 921516 | Recorded: 2013

George Frideric Handel’s Duetti da camera from La Risonanza represent a welcome extension of the ensemble’s award-winning series of Handel solo cantatas on Glossa, and come with the luxurious vocal pairing of Roberta Invernizzi and Marina De Liso.
These chamber duets – scored for soprano and alto – were written across a period spanning four decades: first, after Handel’s move to Hanover in 1710, following his remarkable Italian compositional apprenticeship which yielded quantities of cantatas, motets and instrumental chamber works; next in the 1720s, when he was writing Italian operas and music for the Court in London; and lastly when he was composing English oratorios in the 1740s. Such vocal duos had become part of an established tradition, especially in Italy, during the late 17th century.
Soprano Roberta Invernizzi who has, in the last few years, been supplying Italian grace and charm to many Glossa recordings (including the recent La bella più bella) is ideally matched by Marina De Liso, whose rich mezzo tones have made her another firm audience favourite across the Baroque and Classical repertories. Fabio Bonizzoni, with his sure sense of Handel’s expressiveness and melodic facility, provides luxurious continuo support on the harpsichord across these ten chamber duets – originally written for cultured aristocrats but later composed for professional singers, as Carlo Vitali explains in his perceptive booklet essay – with the assistance of cellist Caterina Dell’Agnello and theorbo player Craig Marchitelli.

Performer:
Roberta Invernizzi, soprano
Marina De Liso, mezzo-soprano
La Risonanza
Caterina Dell’Agnello, violoncello
Craig Marchitelli, archlute & theorbo
Fabio Bonizzoni, harpsichord & musical direction

Track List:
01 Sono liete, fortunate (HWV 194)
02 Troppo cruda, troppo fiera (HWV 198)
03 Beato in ver chi può (HWV 181)
04 Tanti strali al sen mi scocchi (HWV 197)
05 Langue, geme, sospira (HWV 188)
06 Conservate, raddoppiate (HWV 185)
07 Se tu non lasci amore (HWV 193)
08 A mirarvi io son intento (HWV 178)
09 No, di voi non vuo’ fidarmi (HWV 190)
10 Fronda leggiera e mobile (HWV 186)


Exact Audio Copy V1.3 from 2. September 2016

EAC extraction logfile from 31. October 2019, 1:31

Roberta Invernizzi, Marina De Liso / Handel - Duetti da Camera

Used drive : ATAPI iHAS124 F Adapter: 1 ID: 0

Read mode : Secure
Utilize accurate stream : Yes
Defeat audio cache : Yes
Make use of C2 pointers : No

Read offset correction : 6
Overread into Lead-In and Lead-Out : No
Fill up missing offset samples with silence : Yes
Delete leading and trailing silent blocks : No
Null samples used in CRC calculations : Yes
Used interface : Native Win32 interface for Win NT & 2000

Used output format : User Defined Encoder
Selected bitrate : 1024 kBit/s
Quality : High
Add ID3 tag : No
Command line compressor : C:\Program Files (x86)\Exact Audio Copy\Flac\flac.exe
Additional command line options : -6 -V -T "ARTIST=%artist%" -T "TITLE=%title%" -T "ALBUM=%albumtitle%" -T "DATE=%year%" -T "TRACKNUMBER=%tracknr%" -T "GENRE=%genre%" -T "COMMENT=%comment%" -T "BAND=%albuminterpret%" -T "ALBUMARTIST=%albuminterpret%" -T "COMPOSER=%composer%" %haslyrics%–tag-from-file=LYRICS="%lyricsfile%"%haslyrics% -T "DISCNUMBER=%cdnumber%" -T "TOTALDISCS=%totalcds%" -T "TOTALTRACKS=%numtracks%" %hascover%–picture="%coverfile%"%hascover% %source% -o %dest%


TOC of the extracted CD

Track | Start | Length | Start sector | End sector
––––––––––––––––––––––––––––-
1 | 0:00.00 | 4:07.03 | 0 | 18527
2 | 4:07.03 | 7:28.00 | 18528 | 52127
3 | 11:35.03 | 7:06.53 | 52128 | 84130
4 | 18:41.56 | 7:52.53 | 84131 | 119583
5 | 26:34.34 | 5:09.21 | 119584 | 142779
6 | 31:43.55 | 3:46.28 | 142780 | 159757
7 | 35:30.08 | 6:36.30 | 159758 | 189487
8 | 42:06.38 | 8:49.30 | 189488 | 229192
9 | 50:55.68 | 6:41.41 | 229193 | 259308
10 | 57:37.34 | 7:03.44 | 259309 | 291077


Range status and errors

Selected range

Filename C:\EACRip\HANDEL\00 - CANTATAS\Handel - Duetti da Camera (La Risonanza, Fabio Bonizzoni) (2014)\Handel - Duetti da Camera - Fabio Bonizzoni.wav

Peak level 94.3 %
Extraction speed 9.4 X
Range quality 100.0 %
Test CRC 65D0D50F
Copy CRC 65D0D50F
Copy OK

No errors occurred


AccurateRip summary

Track 1 accurately ripped (confidence 8) [A890A2B7] (AR v2)
Track 2 accurately ripped (confidence 8) [6BC62B28] (AR v2)
Track 3 accurately ripped (confidence 8) [39C3CBD7] (AR v2)
Track 4 accurately ripped (confidence 8) [23087AE1] (AR v2)
Track 5 accurately ripped (confidence 8) [8F76C2AF] (AR v2)
Track 6 accurately ripped (confidence 8) [65AD02A7] (AR v2)
Track 7 accurately ripped (confidence 8) [C731D16A] (AR v2)
Track 8 accurately ripped (confidence 8) [AC2C6544] (AR v2)
Track 9 accurately ripped (confidence 8) [9133F6FF] (AR v2)
Track 10 accurately ripped (confidence 8) [DED23C8A] (AR v2)

All tracks accurately ripped

End of status report

–– CUETools DB Plugin V2.1.6

[CTDB TOCID: gRnjdtJMPK3jKliE9GP98YajxaY-] found
Submit result: gRnjdtJMPK3jKliE9GP98YajxaY- has been confirmed
Track | CTDB Status
1 | (16/16) Accurately ripped
2 | (16/16) Accurately ripped
3 | (16/16) Accurately ripped
4 | (16/16) Accurately ripped
5 | (16/16) Accurately ripped
6 | (16/16) Accurately ripped
7 | (16/16) Accurately ripped
8 | (16/16) Accurately ripped
9 | (16/16) Accurately ripped
10 | (16/16) Accurately ripped


==== Log checksum 9F6962A5055BA7939577685FBFAA142E7C3BF424F0936404EA31DBE3FABEA4B2 ====

Fabio Bonizzoni, La Risonanza, Roberta Invernizzi, Marina De Liso - Handel: Duetti da Camera (2014)

Thanks to the original releaser