Tags
Language
Tags
July 2024
Su Mo Tu We Th Fr Sa
30 1 2 3 4 5 6
7 8 9 10 11 12 13
14 15 16 17 18 19 20
21 22 23 24 25 26 27
28 29 30 31 1 2 3

Lars Vogt, Royal Northern Sinfonia - Ludwig van Beethoven: Triple Concerto & Piano Concerto No. 3 (2017)

Posted By: ArlegZ
Lars Vogt, Royal Northern Sinfonia - Ludwig van Beethoven: Triple Concerto & Piano Concerto No. 3 (2017)

Lars Vogt, Royal Northern Sinfonia - Ludwig van Beethoven: Triple Concerto & Piano Concerto No. 3 (2017)
EAC | FLAC | Image (Cue & Log) ~ 274 Mb | Total time: 69:46 | Scans included
Classical | Label: Ondine | ODE12972 | Recorded: 2016

Lars Vogt continues his cycle of Beethovens Piano Concertos with the Royal Northern Sinfonia. On this second volume, the recording also includes Beethovens Triple Concerto where Lars Vogt is joined together with his longtime artistic partners Christian Tetzlaff and Tanja Tetzlaff. Vogts recordings of chamber music with the trio have gathered astonishing reviews and recording awards, including a Grammy nomination for the recording of Brahms Piano Trios (ODE 1271-2D). Beethovens Triple Concerto for Piano, Violin, and Cello in C major, Op. 56 is a work radiant with joy, described by many as a concerto for piano trio and orchestra. The work, completed in 1803, has standed unrivaled in its genre. Beethovens Piano Concerto No. 3 in C minor, Op. 37 is a slightly earlier work and it was premiered together with his Symphony No. 2 in a concert in 1804. It has been noted that the theme in the first movement of the concerto is possibly a quotation from Mozarts Piano Concerto No. 24 written in the same key, and the both works do ressemble each other in formal, rhythmic, and thematic aspects. C minor key is also a key in which Beethoven wrote many of his most important works, including the 5th Symphony, the Pathétique Sonata and Piano Sonata, Op. 111. Lars Vogt was appointed the first ever 'Pianist in Residence' by the Berlin Philharmonic in 2003/04 and enjoys a high profile as a soloist and chamber musician. His debut solo recording on Ondine with Bachs Goldberg Variations (ODE 1273-2) was released in August 2015 and has been a major critical success. The albums tracks have also been streamed online over 6 million times. Lars Vogt started his tenure as Music Director of the Royal Northern Sinfonia in September 2015. In June 2017 Lars Vogt was nominated for Gramophone's Artist of the Year 2017 Award.

Performer:
Lars Vogt, piano & conductor
Christian Tetzlaff, violin
Tanja Tetzlaff, cello
Royal Northern Sinfonia

Tracklist:
Ludwig van Beethoven (1770-1827)
Triple Concerto for Piano, Violin, and Cello in C major, Op. 56
01. I. Allegro
02. II. Largo
03. III. Rondo alla polacca
Piano Concerto No. 3 in C minor, Op. 37
04. I. Allegro con brio
05. II. Largo
06. III. Rondo. Allegro


Exact Audio Copy V1.3 from 2. September 2016

EAC extraction logfile from 17. December 2019, 13:37

Lars Vogt / Beethoven - Triple Concerto & Piano Concerto no. 3

Used drive : HL-DT-STBD-RE WH16NS40 Adapter: 1 ID: 0

Read mode : Secure
Utilize accurate stream : Yes
Defeat audio cache : Yes
Make use of C2 pointers : No

Read offset correction : 6
Overread into Lead-In and Lead-Out : No
Fill up missing offset samples with silence : Yes
Delete leading and trailing silent blocks : No
Null samples used in CRC calculations : Yes
Used interface : Native Win32 interface for Win NT & 2000

Used output format : User Defined Encoder
Selected bitrate : 1024 kBit/s
Quality : High
Add ID3 tag : No
Command line compressor : C:\Program Files (x86)\Exact Audio Copy\FLAC\FLAC.EXE
Additional command line options : -6 -V -T "ARTIST=%artist%" -T "TITLE=%title%" -T "ALBUM=%albumtitle%" -T "DATE=%year%" -T "TRACKNUMBER=%tracknr%" -T "GENRE=%genre%" -T "COMMENT=%comment%" -T "BAND=%albuminterpret%" -T "ALBUMARTIST=%albuminterpret%" -T "COMPOSER=%composer%" %haslyrics%–tag-from-file=LYRICS="%lyricsfile%"%haslyrics% -T "DISCNUMBER=%cdnumber%" -T "TOTALDISCS=%totalcds%" -T "TOTALTRACKS=%numtracks%" %hascover%–picture="%coverfile%"%hascover% %source% -o %dest%


TOC of the extracted CD

Track | Start | Length | Start sector | End sector
––––––––––––––––––––––––––––-
1 | 0:00.00 | 17:01.48 | 0 | 76622
2 | 17:01.48 | 4:28.05 | 76623 | 96727
3 | 21:29.53 | 12:56.03 | 96728 | 154930
4 | 34:25.56 | 16:47.35 | 154931 | 230490
5 | 51:13.16 | 9:37.67 | 230491 | 273832
6 | 60:51.08 | 9:09.10 | 273833 | 315017


Range status and errors

Selected range

Filename C:\Users\Grant\Desktop\Lars Vogt - Beethoven - Triple Concerto & Piano Concerto no. 3.wav

Peak level 92.8 %
Extraction speed 8.6 X
Range quality 100.0 %
Test CRC 2EFA5E92
Copy CRC 2EFA5E92
Copy OK

No errors occurred


AccurateRip summary

Track 1 accurately ripped (confidence 6) [5853AD2C] (AR v2)
Track 2 accurately ripped (confidence 6) [97A5DFAE] (AR v2)
Track 3 accurately ripped (confidence 6) [8941B425] (AR v2)
Track 4 accurately ripped (confidence 6) [59A84147] (AR v2)
Track 5 accurately ripped (confidence 6) [19BC0468] (AR v2)
Track 6 accurately ripped (confidence 6) [3BC98361] (AR v2)

All tracks accurately ripped

End of status report

–– CUETools DB Plugin V2.1.6

[CTDB TOCID: qFp92AfqLGeSltyeRRI7AQw7960-] found
Submit result: qFp92AfqLGeSltyeRRI7AQw7960- has been confirmed
Track | CTDB Status
1 | (16/17) Accurately ripped
2 | (17/17) Accurately ripped
3 | (17/17) Accurately ripped
4 | (17/17) Accurately ripped
5 | (17/17) Accurately ripped
6 | (17/17) Accurately ripped


==== Log checksum 26E4A3C6C0F40DE632C2A527AF1231C5BD4564E01CAD46C53D2B38A96F448461 ====

Lars Vogt, Royal Northern Sinfonia - Ludwig van Beethoven: Triple Concerto & Piano Concerto No. 3 (2017)

Thanks to the original releaser