Tags
Language
Tags

Lawrence Brownlee, Michael Spyres, Corrado Rovaris, I Virtuosi Italiani - Rossini: Amici e Rivali (2020)

Posted By: ArlegZ
Lawrence Brownlee, Michael Spyres, Corrado Rovaris, I Virtuosi Italiani - Rossini: Amici e Rivali (2020)

Lawrence Brownlee, Michael Spyres, Corrado Rovaris, I Virtuosi Italiani - Rossini: Amici e Rivali (2020)
EAC | FLAC | Image (Cue & Log) ~ 364 Mb | Total time: 79:02 | Scans included
Classical | Label: Erato | # 9029526947 | Recorded: 2019

Two of today’s most brilliant tenors, Michael Spyres and Lawrence Brownlee, strike sparks off each other as they celebrate the star tenors of Rossini’s time, such as Andrea Nozzari, Giovanni David, and Manuel García. Amici e Rivali – ‘Friends and Rivals’ – comprises arias, duets and trios from seven of the composer’s operas, including the ever-popular Il barbiere di Siviglia and the rarely heard Ricciardo e Zoraide. The ‘duelling tenors’ are joined by the effervescent Irish mezzo-soprano Tara Erraught, the prize-winning young Spanish tenor Xabier Anduaga, I Virtuosi Italiani and conductor Corrado Rovaris.

Performer:
Lawrence Brownlee, tenor (Almaviva, Ricciardo, Uberto di Snowdon, Duke of Norfolk, Rodrigo, Néoclès, Ubaldo)
Michael Spyres, tenor (Figaro, Agorante, Rodrigo di Dhu, Earl of Leicester, Otello, Cléomène, Rinaldo)
Tara Erraught, mezzo-soprano (Elena, Desdemona, Pamyra)
Xabier Anduaga, tenor (Ernesto, Iago, Carlo)
I Virtuosi Italiani
Corrado Rovaris, conductor

Track List:
Il barbiere di Siviglia, Atto I
01. All'idea di quel metallo (Figaro, Almaviva)
Ricciardo e Zoraide
02. Atto I: S’ella mi è ognor fedele (Ricciardo, Ernesto)
03. Atto I: Qual sarà mai la gioia (Ricciardo, Ernesto)
04. Atto II: Donala a questo core' (Agorante, Ricciardo)
05. Atto II: Teco or sara (Agorante, Ricciardo)
La donna del lago, Atto II
06. Nume! se a' miei sospiri (Elena, Uberto di Snowdon)
07. Qual pena in me già desta (Elena, Uberto di Snowdon, Rodrigo di Dhu)
Elisabetta, regina d'Inghilterra, Atto II
08. Deh! Scusa i trasporti (Earl of Leicester, Duke of Norfolk)
Otello, Atto II
09. Non m'inganno - Al mio rivale (Otello, Iago)
10. Ah! vieni, nel tuo sangue vendicherò le offese (Rodrigo, Otello, Desdemona)
11. Che fiero punto e questo (Rodrigo, Otello, Desdemona)
Le Siège de Corinthe, Act III
12. Grand Dieu, faut-il qu'un peuple (Néoclès)
13. Cher Cléomène (Néoclès, Cléomène, Pamyra)
14. Céleste providence (Néoclès, Cléomène, Pamyra)
Armida, Atto III
15. In quale aspetto imbelle (Rinaldo, Carlo, Ubaldo)


Exact Audio Copy V1.3 from 2. September 2016

EAC extraction logfile from 28. February 2021, 17:44

Lawrence Brownlee, Michael Spyres, I Virtuosi Italiani, Corrado Rovaris / Rossini - Amici e Rivali

Used drive : HL-DT-STDVDRAM GH24NS95 Adapter: 1 ID: 0

Read mode : Secure
Utilize accurate stream : Yes
Defeat audio cache : Yes
Make use of C2 pointers : No

Read offset correction : 6
Overread into Lead-In and Lead-Out : No
Fill up missing offset samples with silence : Yes
Delete leading and trailing silent blocks : No
Null samples used in CRC calculations : Yes
Used interface : Native Win32 interface for Win NT & 2000

Used output format : User Defined Encoder
Selected bitrate : 768 kBit/s
Quality : High
Add ID3 tag : No
Command line compressor : C:\Program Files\Exact Audio Copy\FLAC\FLAC.EXE
Additional command line options : -6 -V -T "ARTIST=%artist%" -T "TITLE=%title%" -T "ALBUM=%albumtitle%" -T "DATE=%year%" -T "TRACKNUMBER=%tracknr%" -T "GENRE=%genre%" -T "COMMENT=%comment%" -T "BAND=%albuminterpret%" -T "ALBUMARTIST=%albuminterpret%" -T "COMPOSER=%composer%" %haslyrics%–tag-from-file=LYRICS="%lyricsfile%"%haslyrics% -T "DISCNUMBER=%cdnumber%" -T "TOTALDISCS=%totalcds%" -T "TOTALTRACKS=%numtracks%" %hascover%–picture="%coverfile%"%hascover% %source% -o %dest%


TOC of the extracted CD

Track | Start | Length | Start sector | End sector
––––––––––––––––––––––––––––-
1 | 0:00.00 | 8:40.61 | 0 | 39060
2 | 8:40.61 | 3:37.59 | 39061 | 55394
3 | 12:18.45 | 3:25.36 | 55395 | 70805
4 | 15:44.06 | 5:57.59 | 70806 | 97639
5 | 21:41.65 | 3:25.40 | 97640 | 113054
6 | 25:07.30 | 4:10.28 | 113055 | 131832
7 | 29:17.58 | 1:43.22 | 131833 | 139579
8 | 31:01.05 | 4:19.35 | 139580 | 159039
9 | 35:20.40 | 7:00.48 | 159040 | 190587
10 | 42:21.13 | 4:47.12 | 190588 | 212124
11 | 47:08.25 | 6:49.56 | 212125 | 242855
12 | 53:58.06 | 4:49.59 | 242856 | 264589
13 | 58:47.65 | 5:37.02 | 264590 | 289866
14 | 64:24.67 | 5:27.65 | 289867 | 314456
15 | 69:52.57 | 8:57.28 | 314457 | 354759


Range status and errors

Selected range

Filename C:\Program Files\Exact Audio Copy\Lawrence Brownlee, Michael Spyres - Rossini - Amici e Rivali.wav

Peak level 95.0 %
Extraction speed 2.1 X
Range quality 100.0 %
Test CRC 9B24B215
Copy CRC 9B24B215
Copy OK

No errors occurred

End of status report

Lawrence Brownlee, Michael Spyres, Corrado Rovaris, I Virtuosi Italiani - Rossini: Amici e Rivali (2020)

Thanks to the original releaser