Subcategories

Le Concert Francais, Pierre Hantai - J.S. Bach: Concerti Pour Clavecin (1994) (Repost)

Posted By: tirexiss
Le Concert Francais, Pierre Hantai - J.S. Bach: Concerti Pour Clavecin (1994) (Repost)

Le Concert Francais, Pierre Hantai - J.S. Bach: Concerti Pour Clavecin (1994)
EAC | FLAC (tracks+.cue, log) - 423 MB | MP3 (CBR 320 kbps) - 180 MB | Covers Included | 70:05
Genre: Baroque | Label: Astrée Auvidis | Catalog: E 8523

In the Baroque period, there really was no such thing as an "orchestra" as we understand the term today. There were large collections of singers and players brought together for special occasions, but aside from those, an "orchestral" work was anything that required more than five or six players. Bach's harpsichord concertos, for example, can be performed by a couple of dozen string players plus the soloist, or with an accompaniment of one person per part, which is more or less what we get here. These small forces permit an unprecedented transparency of sound and sharpness of attack, even if some weight and body of tone necessarily get sacrificed. It's a perfectly legitimate way to play the music, however, and you won't find it better done than here.

Le Concert Francais, Pierre Hantai - J.S. Bach: Concerti Pour Clavecin (1994) (Repost)

Track List:

Concerto Pour Clavecin En Ré Majeur, BWV 1054
01. Allegro 7:21
02. Adagio 5:37
03. Allegro 2:34
Prélude Et Fugue En Si Majeur, BWV 892
04. Prélude 2:19
05. Fugue 4:17
Concerto Pour Clavecin Et Cordes En Ré Mineur, BWV 1052
06. Allegro 7:18
07. Adagio 5:58
08. Allegro 7:31
Prélude Et Fugue En Fa Majeur, BWV 880
09. Prélude 3:33
10. Fugue 1:46
Triple Concerto Pour Flûte, Violon, Clavecin Et Cordes En La Mineur, BWV 1044
11. Allegro 8:34
12. Adagio Ma Non Tanto, E Dolce 6:01
13. Alla Breve 6:40

Performers:
Cello – Hidemi Suzuki
Composed By – Johann-Sebastian Bach
Double Bass – James Munro
Ensemble – Le Concert Français
Flute – Marc Hantaï
Harpsichord, Conductor – Pierre Hantaï
Viola [Alto] – Simon Heyerick
Violin – François Fernandez, Luis Otavio Santos, Ryo Terakado (tracks: 11 to 13)

Exact Audio Copy V0.99 prebeta 3 from 28. July 2007

EAC extraction logfile from 8. January 2010, 18:42

Pierre Hantaп (Le Concert Franзais) / J. S. Bach - Concerti pour clavecin; BWV 1044, 1052, 1054

Used drive : PLEXTOR CD-R PX-W2410A Adapter: 0 ID: 1

Read mode : Burst

Read offset correction : 98
Overread into Lead-In and Lead-Out : No
Fill up missing offset samples with silence : Yes
Delete leading and trailing silent blocks : No
Null samples used in CRC calculations : Yes
Used interface : Native Win32 interface for Win NT & 2000
Gap handling : Appended to previous track

Used output format : Internal WAV Routines
Sample format : 44.100 Hz; 16 Bit; Stereo


TOC of the extracted CD

Track | Start | Length | Start sector | End sector
––––––––––––––––––––––––––––-
1 | 0:00.02 | 7:20.58 | 2 | 33059
2 | 7:20.60 | 5:37.25 | 33060 | 58359
3 | 12:58.10 | 2:40.30 | 58360 | 70389
4 | 15:38.40 | 2:18.15 | 70390 | 80754
5 | 17:56.55 | 4:33.37 | 80755 | 101266
6 | 22:30.17 | 7:17.63 | 101267 | 134104
7 | 29:48.05 | 5:57.47 | 134105 | 160926
8 | 35:45.52 | 7:40.53 | 160927 | 195479
9 | 43:26.30 | 3:33.07 | 195480 | 211461
10 | 46:59.37 | 1:48.23 | 211462 | 219584
11 | 48:47.60 | 8:36.62 | 219585 | 258346
12 | 57:24.47 | 6:00.10 | 258347 | 285356
13 | 63:24.57 | 6:40.20 | 285357 | 315376


Track 1

Filename h:\audio\01 - 01. Concerto pour clavecin et cordes, BWV 1054 en rй majeur I - Allegro.wav

Pre-gap length 0:00:02.02

Peak level 75.2 %
Test CRC 744AB278
Copy CRC 744AB278
Accurately ripped (confidence 5) [6AEEE9A8]
Copy OK

Track 2

Filename h:\audio\02 - 02. Concerto pour clavecin et cordes, BWV 1054 en rй majeur II - Adagio.wav

Peak level 31.8 %
Test CRC 637F5BE1
Copy CRC 637F5BE1
Accurately ripped (confidence 5) [954A8A64]
Copy OK

Track 3

Filename h:\audio\03 - 03. Concerto pour clavecin et cordes, BWV 1054 en rй majeur III - Allegro.wav

Peak level 49.1 %
Test CRC 21AC1215
Copy CRC 21AC1215
Accurately ripped (confidence 5) [6784D306]
Copy OK

Track 4

Filename h:\audio\04 - 04. Prйlude et fugue en si majeur, BWV 892 Prйlude.wav

Pre-gap length 0:00:06.12

Peak level 32.1 %
Test CRC 1C333BED
Copy CRC 1C333BED
Accurately ripped (confidence 5) [AC26D50F]
Copy OK

Track 5

Filename h:\audio\05 - 05. Prйlude et fugue en si majeur, BWV 892 Fugue.wav

Peak level 18.9 %
Test CRC 937DA409
Copy CRC 937DA409
Accurately ripped (confidence 5) [EEC2A2A6]
Copy OK

Track 6

Filename h:\audio\06 - 06. Concerto pour clavecin et cordes en rй mineur, BWV 1052 I - Allegro.wav

Pre-gap length 0:00:15.04

Peak level 86.5 %
Test CRC F9B3022A
Copy CRC F9B3022A
Accurately ripped (confidence 5) [D57F50D7]
Copy OK

Track 7

Filename h:\audio\07 - 07. Concerto pour clavecin et cordes en rй mineur, BWV 1052 II - Adagio.wav

Peak level 53.0 %
Test CRC 93A52D97
Copy CRC 93A52D97
Accurately ripped (confidence 5) [B7192939]
Copy OK

Track 8

Filename h:\audio\08 - 08. Concerto pour clavecin et cordes en rй mineur, BWV 1052 III - Allegro.wav

Peak level 91.6 %
Test CRC A2BE6C3C
Copy CRC A2BE6C3C
Accurately ripped (confidence 5) [A995B2B3]
Copy OK

Track 9

Filename h:\audio\09 - 09. Prйlude et fugue en fa majeur, BWV 880 Prйlude.wav

Pre-gap length 0:00:09.20

Peak level 25.4 %
Test CRC 3110C3F0
Copy CRC 3110C3F0
Accurately ripped (confidence 5) [814EAB1F]
Copy OK

Track 10

Filename h:\audio\10 - 10. Prйlude et fugue en fa majeur, BWV 880 Fugue.wav

Peak level 32.4 %
Test CRC 75D48541
Copy CRC 75D48541
Accurately ripped (confidence 5) [521B92F9]
Copy OK

Track 11

Filename h:\audio\11 - 11. Triple concerto pour flыte, violon, clavecin et cordes en la mineur, BWV 1044 I - Allegro.wav

Pre-gap length 0:00:01.63

Peak level 75.1 %
Test CRC 3C9706EE
Copy CRC 3C9706EE
Accurately ripped (confidence 5) [BFADC7CE]
Copy OK

Track 12

Filename h:\audio\12 - 12. Triple concerto pour flыte, violon, clavecin et cordes en la mineur, BWV 1044 II - Adagio ma non tanto, e dolce.wav

Peak level 31.2 %
Test CRC 67AE7CF1
Copy CRC 67AE7CF1
Accurately ripped (confidence 5) [B344B5C3]
Copy OK

Track 13

Filename h:\audio\13 - 13. Triple concerto pour flыte, violon, clavecin et cordes en la mineur, BWV 1044 III - Alla breve.wav

Peak level 75.1 %
Test CRC 0A2678D8
Copy CRC 0A2678D8
Accurately ripped (confidence 5) [4D4F58F6]
Copy OK


All tracks accurately ripped

No errors occurred

End of status report

[CUETools log; Date: 27.10.2016 17:52:00; Version: 2.1.5]
Pregap length 00:00:02.
[CTDB TOCID: gUQhOGfOxESmGJn1SsKYOKqshBg-] found.
Track | CTDB Status
1 | (17/17) Accurately ripped
2 | (17/17) Accurately ripped
3 | (17/17) Accurately ripped
4 | (17/17) Accurately ripped
5 | (17/17) Accurately ripped
6 | (17/17) Accurately ripped
7 | (17/17) Accurately ripped
8 | (17/17) Accurately ripped
9 | (17/17) Accurately ripped
10 | (16/17) Accurately ripped
11 | (16/17) Accurately ripped
12 | (17/17) Accurately ripped
13 | (17/17) Accurately ripped

[AccurateRip ID: 00206aba-0144a07c-b7106d0d] found.
Track [ CRC | V2 ] Status
01 [6aeee9a8|ca82ad5c] (11+17/53) Accurately ripped
02 [954a8a64|6378db73] (11+17/53) Accurately ripped
03 [6784d306|e031caaa] (11+17/53) Accurately ripped
04 [ac26d50f|03ae7e84] (11+16/52) Accurately ripped
05 [eec2a2a6|a0c769bb] (11+16/52) Accurately ripped
06 [d57f50d7|e82174b4] (11+17/53) Accurately ripped
07 [b7192939|34717467] (11+17/53) Accurately ripped
08 [a995b2b3|91438e22] (11+17/53) Accurately ripped
09 [814eab1f|188d4862] (11+16/52) Accurately ripped
10 [521b92f9|af5b05bc] (11+16/52) Accurately ripped
11 [bfadc7ce|9bf52073] (11+16/52) Accurately ripped
12 [b344b5c3|f4628750] (11+16/52) Accurately ripped
13 [4d4f58f6|fefadef9] (11+16/52) Accurately ripped

Offsetted by -510:
01 [0c71c313] (05/53) Accurately ripped
02 [36f1d3d1] (05/53) Accurately ripped
03 [4e8aa940] (05/53) Accurately ripped
04 [b77a9c83] (05/52) Accurately ripped
05 [f043dcdf] (05/52) Accurately ripped
06 [39805faf] (05/53) Accurately ripped
07 [dd52e060] (05/53) Accurately ripped
08 [896cf9d9] (05/53) Accurately ripped
09 [356740b8] (05/52) Accurately ripped
10 [0063d92b] (05/52) Accurately ripped
11 [8421604c] (05/52) Accurately ripped
12 [ef157ef4] (05/52) Accurately ripped
13 [64f35c56] (05/52) Accurately ripped

Offsetted by -1174:
01 [3079adc5] (00/53) No match (V2 was not tested)
02 [d1902fa2] (00/53) No match (V2 was not tested)
03 [34ee084d] (00/53) No match (V2 was not tested)
04 [109751bd] (00/52) No match (V2 was not tested)
05 [b99dfc51] (00/52) No match (V2 was not tested)
06 [7ab6e587] (00/53) No match (V2 was not tested)
07 [af4e1df9] (00/53) No match (V2 was not tested)
08 [27bf7c2c] (00/53) No match (V2 was not tested)
09 [795b0a3f] (00/52) No match (V2 was not tested)
10 [16666bd4] (00/52) No match (V2 was not tested)
11 [b8537982] (00/52) No match (V2 was not tested)
12 [52fdfa09] (00/52) No match (V2 was not tested)
13 [a4565033] (00/52) No match (V2 was not tested)

Offsetted by -528:
01 [dd47ff4b] (00/53) No match (V2 was not tested)
02 [2c523d04] (00/53) No match (V2 was not tested)
03 [1871f6a2] (00/53) No match (V2 was not tested)
04 [6e794fcb] (00/52) No match (V2 was not tested)
05 [6b30464f] (00/52) No match (V2 was not tested)
06 [a4bf7a8e] (00/53) No match (V2 was not tested)
07 [ba41e531] (00/53) No match (V2 was not tested)
08 [b7dde328] (00/53) No match (V2 was not tested)
09 [26260b36] (00/52) No match (V2 was not tested)
10 [b5d8c344] (00/52) No match (V2 was not tested)
11 [45bae9e0] (00/52) No match (V2 was not tested)
12 [a291a2f2] (00/52) No match (V2 was not tested)
13 [3a48d1fb] (00/52) No match (V2 was not tested)

Track Peak [ CRC32 ] [W/O NULL] [ LOG ]
– 91,6 [6916BFBD] [55C489B9]
01 75,2 [744AB278] [CD8FAA97] CRC32
02 31,8 [637F5BE1] [26D2317D] CRC32
03 49,1 [21AC1215] [FDCBEC35] CRC32
04 32,1 [1C333BED] [F8FB3F58] CRC32
05 18,9 [937DA409] [1AECA858] CRC32
06 86,5 [F9B3022A] [E5B42F29] CRC32
07 53,0 [93A52D97] [18F34C3D] CRC32
08 91,6 [A2BE6C3C] [8837667D] CRC32
09 25,4 [3110C3F0] [C92C4BA3] CRC32
10 32,4 [75D48541] [5E323A29] CRC32
11 75,1 [3C9706EE] [856274E9] CRC32
12 31,2 [67AE7CF1] [E098204F] CRC32
13 75,1 [0A2678D8] [538A95F6] CRC32

Le Concert Francais, Pierre Hantai - J.S. Bach: Concerti Pour Clavecin (1994) (Repost)

Thanks to the Original ripper psyfluid!

Download: