Subcategories
Tags
Language
Tags

Leo Sayer - All The Best (1993) [Re-Up]

Posted By: Designol
Leo Sayer - All The Best (1993) [Re-Up]

Leo Sayer - All The Best (1993)
EAC | FLAC | Image (Cue&Log) ~ 350 Mb | Mp3 (CBR320) ~ 143 Mb | Scans included
Soft Rock, Pop/Rock, Disco | Label: Chrysalis | # CDCHR1980 | Time: 00:59:31

All the Best certainly lives up to its title, offering 17 of Leo Sayer's most popular pop efforts, including each of his Top 40 singles. Beginning with "The Show Must Go On," a frolicking vaudeville-type number with Russ Ballard playing banjo and a number four hit for Three Dog Night, the set entertainingly works its way through the years to reveal Sayer's adeptness at singing ballads and his overly effective pop melodramatics. The disco-flavored "You Make Me Feel Like Dancing" was a number one hit for him in 1976, followed by the syrupy "When I Need You," which accomplished the same feat only four months later. Both singles came from Endless Flight, a platinum seller that also yielded a minor hit with "How Much Love," and would prove to be Sayer's strongest album. "One Man Band" is one of this set's finer points as well, covered more enthusiastically by Roger Daltrey on his 1973 Daltrey album, as was "Giving It All Away." The number two charted cover and number one adult contemporary hit of Bobby Vee's "More Than I Can Say" stands as one of Sayer's best-sung tunes, and introduced him into a new decade. His early-'80s material, represented by "Living in a Fantasy" (his last Top 40 single), "Have You Ever Been in Love," and the solidly written "Orchard Road," reveals a more mature-sounding side to Sayer but is still anything but unappealing. Out of the numerous compilations that have been released from Leo Sayer, All the Best covers the most entertaining ground.

Review by Mike DeGagne, Allmusic.com

Leo Sayer - All The Best (1993) [Re-Up]



Tracklist:

01. When I Need You (04:09)
02. The Show Must Go On (02:49)
03. One Man Band (03:36)
04. Long Tall Glasses (03:04)
05. Moonlighting (04:10)
06. You Make Me Feel Like Dancing (03:39)
07. How Much Love (03:30)
08. Thunder In My Heart (03:35)
09. I Can't Stop Loving You (Though I Try) (03:32)
10. Raining In My Heart (03:12)
11. More Than I Can Say (03:39)
12. Have You Ever Been In Love (03:47)
13. Heart (Stop Beating In Time) (04:00)
14. Orchard Road (04:28)
15. Living In A Fantasy (04:24)
16. Giving It All Away (03:50)


Exact Audio Copy V0.99 prebeta 5 from 4. May 2009

Отчёт EAC об извлечении, выполненном 13. ноября 2010, 18:17

Leo Sayer / All The Best

Дисковод: Optiarc DVD RW AD-7585H Adapter: 0 ID: 1

Режим чтения : Достоверность
Использование точного потока : Да
Отключение кэша аудио : Да
Использование указателей C2 : Нет

Коррекция смещения при чтении : 6
Способность читать области Lead-in и Lead-out : Нет
Заполнение пропущенных сэмплов тишиной : Да
Удаление блоков с тишиной в начале и конце : Нет
При вычислениях CRC использовались нулевые сэмплы : Да
Интерфейс : Встроенный Win32-интерфейс для Win NT/2000

Выходной формат : Внутренние WAV-операции
Формат сэмплов : 44.100 Гц; 16 бит; стерео


TOC извлечённого CD

Трек | Старт | Длительность | Начальный сектор | Конечный сектор
––––––––––––––––––––––––––––––––––-
1 | 0:00.32 | 4:09.68 | 32 | 18774
2 | 4:10.25 | 2:49.15 | 18775 | 31464
3 | 6:59.40 | 3:36.22 | 31465 | 47686
4 | 10:35.62 | 3:04.13 | 47687 | 61499
5 | 13:40.00 | 4:10.15 | 61500 | 80264
6 | 17:50.15 | 3:39.10 | 80265 | 96699
7 | 21:29.25 | 3:30.45 | 96700 | 112494
8 | 24:59.70 | 3:35.60 | 112495 | 128679
9 | 28:35.55 | 3:32.45 | 128680 | 144624
10 | 32:08.25 | 3:12.55 | 144625 | 159079
11 | 35:21.05 | 3:39.12 | 159080 | 175516
12 | 39:00.17 | 3:47.33 | 175517 | 192574
13 | 42:47.50 | 4:00.67 | 192575 | 210641
14 | 46:48.42 | 4:28.45 | 210642 | 230786
15 | 51:17.12 | 4:24.35 | 230787 | 250621
16 | 55:41.47 | 3:50.25 | 250622 | 267896


Характеристики диапазона извлечения и сообщения об ошибках

Выбранный диапазон

Имя файла C:\Музыка\03.1993 Leo Sayer - All The Best\Leo Sayer - All The Best.wav

Пиковый уровень 98.5 %
Качество диапазона 100.0 %
CRC теста F87107AD
CRC копии F87107AD
Копирование… OK

Ошибок не произошло


AccurateRip: сводка

Трек 1 точное извлечение (доверие 8) [F892A3ED]
Трек 2 точное извлечение (доверие 8) [DB0FF896]
Трек 3 точное извлечение (доверие 8) [C881AE80]
Трек 4 точное извлечение (доверие 8) [747CA2C6]
Трек 5 точное извлечение (доверие 8) [F1AE45BA]
Трек 6 точное извлечение (доверие 8) [46EF7FA0]
Трек 7 точное извлечение (доверие 8) [5DCA6B34]
Трек 8 точное извлечение (доверие 8) [12A65417]
Трек 9 точное извлечение (доверие 8) [6B8DF9A4]
Трек 10 точное извлечение (доверие 8) [63AF9C90]
Трек 11 точное извлечение (доверие 9) [560AF990]
Трек 12 точное извлечение (доверие 8) [FD3BDC81]
Трек 13 точное извлечение (доверие 8) [386066FF]
Трек 14 точное извлечение (доверие 8) [DAEA2820]
Трек 15 точное извлечение (доверие 7) [C32B4CC4]
Трек 16 точное извлечение (доверие 8) [67215DA8]

Все треки извлечены точно

Конец отчёта

[CUETools log; Date: 19.02.2015 16:21:48; Version: 2.1.4]
Pregap length 00:00:32.
[CTDB TOCID: O_NvsndH6tqBYfnYvsPop_LjaF4-] found.
Track | CTDB Status
1 | (2/2) Accurately ripped
2 | (2/2) Accurately ripped
3 | (2/2) Accurately ripped
4 | (2/2) Accurately ripped
5 | (2/2) Accurately ripped
6 | (2/2) Accurately ripped
7 | (2/2) Accurately ripped
8 | (2/2) Accurately ripped
9 | (2/2) Accurately ripped
10 | (2/2) Accurately ripped
11 | (2/2) Accurately ripped
12 | (2/2) Accurately ripped
13 | (2/2) Accurately ripped
14 | (2/2) Accurately ripped
15 | (2/2) Accurately ripped
16 | (2/2) Accurately ripped
[AccurateRip ID: 0021b640-01964e0e-bd0df310] found.
Track [ CRC | V2 ] Status
01 [f892a3ed|04f33112] (09+05/42) Accurately ripped
02 [db0ff896|ba654d88] (09+05/42) Accurately ripped
03 [c881ae80|c2ace6ef] (09+05/42) Accurately ripped
04 [747ca2c6|5040fe51] (09+05/42) Accurately ripped
05 [f1ae45ba|462861ca] (09+05/41) Accurately ripped
06 [46ef7fa0|f1af7e3a] (09+05/41) Accurately ripped
07 [5dca6b34|551639e4] (09+05/41) Accurately ripped
08 [12a65417|7b9e750d] (09+05/42) Accurately ripped
09 [6b8df9a4|f9991197] (09+05/40) Accurately ripped
10 [63af9c90|b0d506fd] (09+05/42) Accurately ripped
11 [560af990|0defca5c] (10+05/43) Accurately ripped
12 [fd3bdc81|6110bed9] (08+05/40) Accurately ripped
13 [386066ff|d20f9d1c] (09+05/40) Accurately ripped
14 [daea2820|9faade19] (09+05/42) Accurately ripped
15 [c32b4cc4|951510ea] (08+05/39) Accurately ripped
16 [67215da8|c36032c6] (09+05/40) Accurately ripped
Offsetted by -176:
01 [e969159d] (02/42) Accurately ripped
02 [bb0be29e] (02/42) Accurately ripped
03 [ead113d0] (02/42) Accurately ripped
04 [5c9b7206] (02/42) Accurately ripped
05 [87f8816a] (02/41) Accurately ripped
06 [e9ba1230] (02/41) Accurately ripped
07 [f2d6f1b4] (02/41) Accurately ripped
08 [e0a5cc37] (02/42) Accurately ripped
09 [ecf43854] (02/40) Accurately ripped
10 [e51775c0] (02/42) Accurately ripped
11 [9be09380] (02/43) Accurately ripped
12 [68347cc1] (02/40) Accurately ripped
13 [61e2122f] (02/40) Accurately ripped
14 [f44e6b70] (02/42) Accurately ripped
15 [ab85d944] (02/39) Accurately ripped
16 [3a9e0e58] (02/40) Accurately ripped
Offsetted by -78:
01 [a34ec4db] (04/42) Accurately ripped
02 [b0b27898] (04/42) Accurately ripped
03 [dcffe654] (04/42) Accurately ripped
04 [be4478ce] (04/42) Accurately ripped
05 [3d0388e8] (04/41) Accurately ripped
06 [b7cf17da] (04/41) Accurately ripped
07 [3ceff844] (04/41) Accurately ripped
08 [e820466b] (04/42) Accurately ripped
09 [84e6ecb2] (04/40) Accurately ripped
10 [b737d12e] (04/42) Accurately ripped
11 [4c43d226] (04/43) Accurately ripped
12 [5275af29] (04/40) Accurately ripped
13 [620b52dd] (03/40) Accurately ripped
14 [a3423a52] (04/42) Accurately ripped
15 [7e81f994] (03/39) Accurately ripped
16 [d3672bf6] (03/40) Accurately ripped
Offsetted by 190:
01 [b493dd8f] (12/42) Accurately ripped
02 [c8810c6a] (12/42) Accurately ripped
03 [19fb4eae] (12/42) Accurately ripped
04 [512cd47e] (12/42) Accurately ripped
05 [75410b1c] (12/41) Accurately ripped
06 [9d035b96] (12/41) Accurately ripped
07 [659ce5a4] (12/41) Accurately ripped
08 [45b85b23] (12/42) Accurately ripped
09 [ffdcb026] (12/40) Accurately ripped
10 [4970f502] (12/42) Accurately ripped
11 [04d5d64a] (12/43) Accurately ripped
12 [d84c8c99] (12/40) Accurately ripped
13 [c5c00e31] (11/40) Accurately ripped
14 [483b025e] (12/42) Accurately ripped
15 [8b3de974] (12/39) Accurately ripped
16 [172f1eea] (12/40) Accurately ripped

Track Peak [ CRC32 ] [W/O NULL] [ LOG ]
– 98,5 [F87107AD] [8DCA132E] CRC32
01 93,4 [21DD8C3C] [6D9918DF]
02 81,6 [5F38FB9B] [E85065F2]
03 72,2 [6C1E98F4] [29CD2CA6]
04 91,9 [95D29AA6] [BEE6B4FF]
05 82,6 [6DF7B1B7] [C524C1A5]
06 87,2 [E209B59F] [39786D31]
07 98,2 [E15359F5] [B0B23DB5]
08 95,3 [F87696CC] [DFE64062]
09 83,2 [E0A97246] [4794ED6A]
10 83,7 [962A9636] [AF5C9074]
11 98,5 [628714F7] [B1130442]
12 89,2 [9E87CCD6] [70184953]
13 92,5 [DFCF4B8B] [B36F2992]
14 80,9 [EA558F58] [3261A964]
15 94,4 [A962E941] [B610140E]
16 71,0 [7E239581] [08D3630C]

foobar2000 1.2 / Dynamic Range Meter 1.1.1
log date: 2015-02-19 16:38:08

––––––––––––––––––––––––––––––––––––––––
Analyzed: Leo Sayer / All The Best
––––––––––––––––––––––––––––––––––––––––

DR Peak RMS Duration Track
––––––––––––––––––––––––––––––––––––––––
DR16 -0.58 dB -20.28 dB 4:10 01-When I Need You
DR12 -1.77 dB -17.45 dB 2:49 02-The Show Must Go On
DR11 -2.83 dB -16.47 dB 3:36 03-One Man Band
DR12 -0.73 dB -16.26 dB 3:04 04-Long Tall Glasses
DR14 -1.66 dB -18.20 dB 4:10 05-Moonlighting
DR14 -1.18 dB -18.22 dB 3:39 06-You Make Me Feel Like Dancing
DR15 -0.16 dB -18.21 dB 3:31 07-How Much Love
DR12 -0.41 dB -16.00 dB 3:36 08-Thunder In My Heart
DR11 -1.59 dB -16.36 dB 3:33 09-I Can't Stop Loving You (Though I Try)
DR12 -1.54 dB -16.80 dB 3:13 10-Raining In My Heart
DR14 -0.12 dB -16.94 dB 3:39 11-More Than I Can Say
DR15 -0.98 dB -19.80 dB 3:47 12-Have You Ever Been In Love
DR13 -0.67 dB -16.62 dB 4:01 13-Heart (Stop Beating In Time)
DR12 -1.84 dB -16.80 dB 4:29 14-Orchard Road
DR14 -0.49 dB -17.30 dB 4:24 15-Living In A Fantasy
DR12 -2.97 dB -18.94 dB 3:50 16-Giving It All Away
––––––––––––––––––––––––––––––––––––––––

Number of tracks: 16
Official DR value: DR13

Samplerate: 44100 Hz
Channels: 2
Bits per sample: 16
Bitrate: 807 kbps
Codec: FLAC
================================================================================

Leo Sayer - All The Best (1993) [Re-Up]

Leo Sayer - All The Best (1993) [Re-Up]

All thanks to original releaser - alexpir

More interesting music in My Blog