Tags
Language
Tags
June 2024
Su Mo Tu We Th Fr Sa
26 27 28 29 30 31 1
2 3 4 5 6 7 8
9 10 11 12 13 14 15
16 17 18 19 20 21 22
23 24 25 26 27 28 29
30 1 2 3 4 5 6

Leopold Stokowski - The Maverick Conductor (2009) (10 CDs Box Set)

Posted By: murena
Leopold Stokowski - The Maverick Conductor (2009) (10 CDs Box Set)

Leopold Stokowski - The Maverick Conductor (2009) (10 CDs Box Set)
EAC Rip | FLAC (Image+.cue, log) | 10 CDs, 12:04:33 min | 3,32 Gb
Genre: Classical / Label: EMI Classics

The Bach/Stokowski orchestral transcriptions join Bartok's Music for Percussion, Stings and Celeste ; Shostakovich's Symphony No. 11 ; Barber's Adagio for Strings ; Holst's The Planets ; Schoenberg's Verklarte Nacht ; Stravinsky's Petrushka Suite and Firebird Suite ; Sibelius's Finlandia ; Orff's Carmina Burana ; Khachaturian's Symphony No. 2 , plus Dukas, Strauss, Vaughan Williams, Tchaikovsky, Frescobaldi, Bloch, Ibert, Mussorgsky, Respighi, Ravel, Palestrina, Gabrielli and more!

The 10 CDs included in Leopold Stokowski: The Maverick Conductor features recordings made between 1956 and 1960 and basically encompasses all of the compact discs EMI previously released either as single discs or as smaller sets. That comes as excellent news for those who missed the short-lived three-CD EMI set devoted to his United Artists' recordings of the Symphony of the Air, containing Stokowski's electrifying recordings of Respighi's The Pines of Rome and Khachaturian's Symphony No. 1, "The Bell." On the downside, it also incorporates his Capitol recording The Orchestra, which once was accompanied by a deluxe booklet illustrating the different instruments of the orchestra and necessarily consisted of excepts. So instead of a full version of Mussorgsky/Ravel's Pictures at an Exhibition you get just the last two movements; of course, he did record that elsewhere, but it's not the sort of thing that makes for the most attractive filler. The portion of Stokowski's output that EMI owns belongs to the latter stages of a long, wandering period where he was without a standing position with a major orchestra, and this did not end until he was appointed to serve as the conductor of the Houston Symphony in 1958. The group identified as the "Leopold Stokowski Symphony Orchestra" was the Symphony of the Air, the reorganized NBC Symphony after Toscanini retired; Stokowski recorded both under that name and his own. There are also some guest situations with the ORTF Orchestra, Los Angeles Philharmonic, and even the Berlin Philharmonic, and the front tip of his work in Houston, the rest being captured by Belock Labs (i.e., Everest). Interestingly, there is a stray recording, from 1957, of Ravel's Rhapsodie espagnole made with the London Symphony, an organization to which Stokowski would later get appointed and with whom he made many of his final recordings

Leopold Stokowski - The Maverick Conductor (2009) (10 CDs Box Set)


CDs:
CD1: Johann Sebastian Bach (orch. Stokowski)
CD2: Bartok, Ibert, Martin, Faberman & Persichetti
CD3: Claude Debussy
CD4: Shostakovich, Barber
CD5: Holst, Schoenberg
CD6: Gliere, Stravinvky
CD7: Dukas, Turina, Loeffler, Ravel & Sibelius
CD8: Orff, Richard Strauss, Vaughan Williams, Tchaikovsky & Mussorgsky
CD9: Respighi, Khachaturian, Frescobaldi & Palestrina
CD10: Shostakovich, Bloch, Cesti, Gabrieli



Disc: 1
1. Passacaglia. - Passacaglia and Fugue in C minor BWV582 (1997 Digital Remaster)
2. Fugue. - Passacaglia and Fugue in C minor BWV582 (1997 Digital Remaster)
3. Komm, süsser Tod BWV478 (1997 Digital Remaster)
4. Bourrée from Suite No. 2 in A minor BWV807. - English Suites BWV806-11 (1997 Digital Remaster)
5. Sarabande. - Violin Partita No. 1 in B minor BWV1002 (arr. Stokowski) (1997 Digital Remaster)
6. Ein' feste Burg ist unser Gott [not from BWV80] (1997 Digital Remaster)
7. Sinfonia. - Christmas Oratorio BWV248 (arr. Stokowski) (1997 Digital Remaster)
8. 'Little' Fugue in G minor BWV578 (1997 Digital Remaster)
9. Air on the G string from Suite No. 3 in D BWV1068. - Orchestral Suites BWV1066-9 (1997 Digital Remaster)
10. Mein Jesu, was vor Seelenweh BWV487 (1997 Digital Remaster)
11. Preludio. - Violin Partita No. 3 in E BWV1006 (1997 Digital Remaster)
12. Toccata. - Toccata and Fugue in D minor BWV565 (arr. Stokowski) (1997 Digital Remaster)
13. Fugue. - Toccata and Fugue in D minor BWV565 (arr. Stokowski) (1997 Digital Remaster)

Disc: 2
1. I Andante tranquillo. - Music for Strings, Percussion & Celesta, Sz106 (1986 Digital Remaster)
2. II Allegro. - Music for Strings, Percussion & Celesta, Sz106 (1986 Digital Remaster)
3. III Adagio. - Music for Strings, Percussion & Celesta, Sz106 (1986 Digital Remaster)
4. IV Allegro molto. - Music for Strings, Percussion & Celesta, Sz106 (1986 Digital Remaster)
5. Rome-Palermo. - Escales (2002 Digital Remaster)
6. Tunis-Nefia. - Escales (2002 Digital Remaster)
7. Valencia. - Escales (2002 Digital Remaster)
8. I. Adagio - Allegro Con Moto. - Petite Symphonie Concertante (1996 Digital Remaster)
9. II. Adagio. - Petite Symphonie Concertante (1996 Digital Remaster)
10. III. Allegretto Alla Marcia. - Petite Symphonie Concertante (1996 Digital Remaster)
11. Evolution (Part 1) (1995 Digital Remaster)
12. March (from Divertimento for band) (1995 Digital Remaster)

Disc: 3
1. Prelude a L'Apres-midi d'un Faune (2000 Digital Remaster)
2. I. Nuages. - Trios Nocturnes (2000 Digital Remaster)
3. II. Fetes. - Trios Nocturnes (2000 Digital Remaster)
4. III. Sirenes. - Trios Nocturnes (2000 Digital Remaster)
5. Clair de lune (from Suite Bergamasque) (2000 Digital Remaster)
6. I - Par Les Rues At Par Les Chemins. - Iberia - Images Pour Orchestra No. 2 (2000 Digital Remaster)
7. II - Les Parfums De La Nuit. - Iberia - Images Pour Orchestra No. 2 (2000 Digital Remaster)
8. III - Le Matin D'Un Jour De Fete. - Iberia - Images Pour Orchestra No. 2 (2000 Digital Remaster)

Disc: 4
1. The Palace Square (Adagio). - Symphony No. 11 in G minor, ("The Year 1905") Op. 103 (1994 Digital Remaster)
2. January 9th (Allegro). - Symphony No. 11 in G minor, ("The Year 1905") Op. 103 (1994 Digital Remaster)
3. Eternal Memory (Adagio). - Symphony No. 11 in G minor, ("The Year 1905") Op. 103 (1994 Digital Remaster)
4. Alarm (Allegro non troppo). - Symphony No. 11 in G minor, ("The Year 1905") Op. 103 (1994 Digital Remaster)

Disc: 5
1. I. Mars, The Bringer Of War. - Holst. The Planets, Op. 32 (2000 Digital Remaster)
2. II. Venus, The Bringer Of Peace. - Holst. The Planets, Op. 32 (2000 Digital Remaster)
3. III. Mercury, The Winged Messenger. - Holst. The Planets, Op. 32 (2000 Digital Remaster)
4. IV. Jupiter, The Bringer Of Jollity. - Holst. The Planets, Op. 32 (2000 Digital Remaster)
5. V. Saturn, The Bringer Of Old Age. - Holst. The Planets, Op. 32 (2000 Digital Remaster)
6. VI. Uranus, The Magician. - Holst. The Planets, Op. 32 (2000 Digital Remaster)
7. VII. Neptune, The Mystic. - Holst. The Planets, Op. 32 (2000 Digital Remaster)
8. Sehr Langsam. - Schoenberg. Verklärte Nacht (Transfigured Night), Op.4 (2000 Digital Remaster)
9. Etwas bewegter. - Schoenberg. Verklärte Nacht (Transfigured Night), Op.4 (2000 Digital Remaster)
10. Schwer betont. - Schoenberg. Verklärte Nacht (Transfigured Night), Op.4 (2000 Digital Remaster)
11. Sehr breit und langsam. - Schoenberg. Verklärte Nacht (Transfigured Night), Op.4 (2000 Digital Remaster)
12. Sehr ruhig. - Schoenberg. Verklärte Nacht (Transfigured Night), Op.4 (2000 Digital Remaster)

Disc: 6
1. I. Ilya Murometz and Svyatogor, the Mighty Hero. - Symphony No. 3 in B minor, Op. 42 "Ilya Murometz"
2. II. Ilya Murometz and Solvei, the Brigand. - Symphony No. 3 in B minor, Op. 42 "Ilya Murometz"
3. III. Ilya Murometz and Prince Vladimir. - Symphony No. 3 in B minor, Op. 42 "Ilya Murometz"
4. IV. The Heroic Deeds and Petrification of Ilya Murometz. - Symphony No. 3 in B minor, Op. 42 "Ilya Murometz"
5. 1. Russian Dance. - Petrushka - Suite (1987 Digital Remaster)
6. 2. The Shrove-tide Fair (near evening). - Petrushka - Suite (1987 Digital Remaster)
7. 3. Dance of the Wet Nurses. - Petrushka - Suite (1987 Digital Remaster)
8. 4. Dance of the Peasant and the Bear. - Petrushka - Suite (1987 Digital Remaster)
9. 5. Dance of the Gypsy Girls. - Petrushka - Suite (1987 Digital Remaster)
10. 6. Dance of the Coachmen and Grooms. - Petrushka - Suite (1987 Digital Remaster)
11. 7. The Masqueraders. - Petrushka - Suite (1987 Digital Remaster)
12. Introduction. - The Firebird Suite (1987 Digital Remaster)
13. The Firebird and its dance. - The Firebird Suite (1987 Digital Remaster)
14. Variation of the Firebird. - The Firebird Suite (1987 Digital Remaster)
15. The princesses' khorovod. - The Firebird Suite (1987 Digital Remaster)
16. Infernal dance of King Kashchei. - The Firebird Suite (1987 Digital Remaster)
17. Lullaby. - The Firebird Suite (1987 Digital Remaster)
18. Finale. - The Firebird Suite (1987 Digital Remaster)

Disc: 7
1. Fanfare to Le Peri (1995 Digital Remaster)
2. La Oración del torero Op. 34 (2002 Digital Remaster)
3. A Pagan Poem, Op. 14 (1994 Digital Remaster)
4. Alborada del gracioso (1994 Digital Remaster)
5. I. Prélude à la nuit. - Rapsodie espagnole (1994 Digital Remaster)
6. II. Malagueña. - Rapsodie espagnole (1994 Digital Remaster)
7. III. Habanera. - Rapsodie espagnole (1994 Digital Remaster)
8. IV. Feria. - Rapsodie espagnole (1994 Digital Remaster)
9. The Swan of Tuonela (from Four Legends, Op. 22) (1995 Digital Remaster)
10. Finlandia, Op. 26 (1995 Digital Remaster)

Disc: 8
1. No. 1 - O Fortuna. - Carmina Burana (1994 Digital Remaster), Fortuna Imperatrix Mundi
2. No. 2 - Fortune Plango Vulnera. - Carmina Burana (1994 Digital Remaster), Fortuna Imperatrix Mundi
3. No. 3 - Veris Ieta Facies. - Carmina Burana (1994 Digital Remaster), I - Primo Vere
4. No. 4 - Omnia Sol Temperat. - Carmina Burana (1994 Digital Remaster), I - Primo Vere
5. No. 5 - Ecce Gratum. - Carmina Burana (1994 Digital Remaster), I - Primo Vere
6. No. 6 - Tanz. - Carmina Burana (1994 Digital Remaster), Uf Dem Anger
7. No. 7 - Floret Silva. - Carmina Burana (1994 Digital Remaster), Uf Dem Anger
8. No. 8 - Chramer, Gip Die Varwe Mir. - Carmina Burana (1994 Digital Remaster), Uf Dem Anger
9. No. 9 - Reie. - Carmina Burana (1994 Digital Remaster), Uf Dem Anger
10. No. 10 - Were Diu Werlt Alle Min. - Carmina Burana (1994 Digital Remaster), Uf Dem Anger
11. No. 11 - Estuans Interius. - Carmina Burana (1994 Digital Remaster), II - In Taberna
12. No. 12 - Olim Lacus Colueram. - Carmina Burana (1994 Digital Remaster), II - In Taberna
13. No. 13 - Ego Sum Abbas. - Carmina Burana (1994 Digital Remaster), II - In Taberna
14. No. 14 - In Taberna Quando Sumus. - Carmina Burana (1994 Digital Remaster), II - In Taberna
15. No.15 - Amor Volat Undique. - Carmina Burana (1994 Digital Remaster), III - Cours D'Amour
16. No. 16 - Dies, Nox Et Omnia. - Carmina Burana (1994 Digital Remaster), III - Cours D'Amour
17. No. 17 - Stetit Puella. - Carmina Burana (1994 Digital Remaster), III - Cours D'Amour
18. No. 18 - Circa Mea Pectora. - Carmina Burana (1994 Digital Remaster), III - Cours D'Amour
19. No. 19 - Si Puer Cum Puellula. - Carmina Burana (1994 Digital Remaster), III - Cours D'Amour
20. No. 20 - Veni, Veni, Venias. - Carmina Burana (1994 Digital Remaster), III - Cours D'Amour
21. No. 21 - In Trutina. - Carmina Burana (1994 Digital Remaster), III - Cours D'Amour
22. No. 22 - Tempus Est Iocundum. - Carmina Burana (1994 Digital Remaster), III - Cours D'Amour
23. No. 23 - Dulcissime. - Carmina Burana (1994 Digital Remaster), III - Cours D'Amour
24. No. 24 - Ave Formosissima. - Carmina Burana (1994 Digital Remaster), Blanziflor Et Helena
25. No. 25 - O Fortuna. - Carmina Burana (1994 Digital Remaster), Fortuna Imperatrix Mundi
26. Gavotte (from Suite for Wind Instruments in B-flat, Op 4) (1995 Digital Remaster)
27. Scherzo (from Symphony No. 8 in D Minor) (1995 Digital Remaster)
28. Scherzo (from Symphony No. 4 in F minor, Op. 36) (1995 Digital Remaster)
29. The Hut on Fowl's Legs (Pictures at an Exhibition) (1995 Digital Remaster)
30. The Great Gate of Kiev (Pictures at an Exhibition) (1995 Digital Remaster)

Disc: 9
1. I. I pini di Villa Borghese
2. II. Pini presso una catacomba
3. III. I pini del Gianiclo
4. IV. I pini di Via Appia
5. I. Andante maestoso - Allegro agitato
6. II. Allegro risoluto
7. III. Andante sostenuto
8. IV. Andante mosso - Allegro sostenuto, Maestoso
9. Gagliarda (1994 Digital Remaster)
10. Adoramus Te (1994 Digital Remaster)Thanks to the original ripper.

Disc: 10
1. I. Allegretto
2. II. Allegro ma non troppo
3. III. Lento
4. IV. Allegro molto
5. Prelude in E-flat minor (1994 Digital Remaster)
6. Entr'acte from Lady Macbeth of Mzensk (1994 Digital Remaster)
7. Schelomo (Hebrew Rhapsody for Cello and Orchestra) (1994 Digital Remaster)
8. Tu Mancavi a Tormentarmi Crudelissma Speranza (1994 Digital Remaster)
9. Sonata Pian' E Forte (1994 Digital Remaster)



CD1
Exact Audio Copy V0.99 prebeta 5 from 4. May 2009
Отчёт EAC об извлечении, выполненном 29. сентября 2009, 20:26
Leopold Stokowski / The Maverick Conductor (CD1)
Дисковод: Optiarc DVD RW AD-7203A Adapter: 4 ID: 1
Режим чтения : Достоверность
Использование точного потока : Да
Отключение кэша аудио : Да
Использование указателей C2 : Нет
Коррекция смещения при чтении : 48
Способность читать области Lead-in и Lead-out : Нет
Заполнение пропущенных сэмплов тишиной : Да
Удаление блоков с тишиной в начале и конце : Нет
При вычислениях CRC использовались нулевые сэмплы : Да
Интерфейс : Встроенный Win32-интерфейс для Win NT/2000
Выходной формат : Пользовательский кодировщик
Выбранный битрейт : 128 kBit/s
Качество : Высокий
Добавление ID3-тэга : Нет
Утилита сжатия : C:\Program Files\FLAC\flac.exe
Дополнительные параметры : -5 -V %s
TOC извлечённого CD
Трек | Старт | Длительность | Начальный сектор | Конечный сектор
––––––––––––––––––––––––––––––––––-
1 | 0:00.00 | 9:00.72 | 0 | 40571
2 | 9:00.72 | 5:48.33 | 40572 | 66704
3 | 14:49.30 | 5:56.02 | 66705 | 93406
4 | 20:45.32 | 3:29.50 | 93407 | 109131
5 | 24:15.07 | 4:36.13 | 109132 | 129844
6 | 28:51.20 | 3:00.10 | 129845 | 143354
7 | 31:51.30 | 9:32.55 | 143355 | 186309
8 | 41:24.10 | 3:56.60 | 186310 | 204069
9 | 45:20.70 | 7:02.25 | 204070 | 235744
10 | 52:23.20 | 5:08.35 | 235745 | 258879
11 | 57:31.55 | 3:48.07 | 258880 | 275986
12 | 61:19.62 | 3:38.53 | 275987 | 292389
13 | 64:58.40 | 5:59.72 | 292390 | 319386
Характеристики диапазона извлечения и сообщения об ошибках
Выбранный диапазон
Имя файла D:\EAC\Leopold Stokowski - The Maverick Conductor (CD1).wav
Пиковый уровень 99.6 %
Качество диапазона 100.0 %
CRC теста A145BF14
CRC копии A145BF14
Копирование… OK
Ошибок не произошло
AccurateRip: сводка
Трек 1 нет в базе данных
Трек 2 нет в базе данных
Трек 3 нет в базе данных
Трек 4 нет в базе данных
Трек 5 нет в базе данных
Трек 6 нет в базе данных
Трек 7 нет в базе данных
Трек 8 нет в базе данных
Трек 9 нет в базе данных
Трек 10 нет в базе данных
Трек 11 нет в базе данных
Трек 12 нет в базе данных
Трек 13 нет в базе данных
Ни одного трека нет в базе AccurateRip
Конец отчёта


CD2
Exact Audio Copy V0.99 prebeta 5 from 4. May 2009

Отчёт EAC об извлечении, выполненном 29. сентября 2009, 21:14

Leopold Stokowski / The Maverick Conductor (CD2)

Дисковод: Optiarc DVD RW AD-7203A Adapter: 4 ID: 1

Режим чтения : Достоверность
Использование точного потока : Да
Отключение кэша аудио : Да
Использование указателей C2 : Нет

Коррекция смещения при чтении : 48
Способность читать области Lead-in и Lead-out : Нет
Заполнение пропущенных сэмплов тишиной : Да
Удаление блоков с тишиной в начале и конце : Нет
При вычислениях CRC использовались нулевые сэмплы : Да
Интерфейс : Встроенный Win32-интерфейс для Win NT/2000

Выходной формат : Пользовательский кодировщик
Выбранный битрейт : 128 kBit/s
Качество : Высокий
Добавление ID3-тэга : Нет
Утилита сжатия : C:\Program Files\FLAC\flac.exe
Дополнительные параметры : -5 -V %s


TOC извлечённого CD

Трек | Старт | Длительность | Начальный сектор | Конечный сектор
––––––––––––––––––––––––––––––––––-
1 | 0:00.00 | 10:12.27 | 0 | 45926
2 | 10:12.27 | 7:19.60 | 45927 | 78911
3 | 17:32.12 | 7:35.02 | 78912 | 113038
4 | 25:07.14 | 8:09.71 | 113039 | 149784
5 | 33:17.10 | 6:38.67 | 149785 | 179701
6 | 39:56.02 | 2:19.45 | 179702 | 190171
7 | 42:15.47 | 5:13.36 | 190172 | 213682
8 | 47:29.08 | 13:39.07 | 213683 | 275114
9 | 61:08.15 | 4:17.38 | 275115 | 294427
10 | 65:25.53 | 3:59.40 | 294428 | 312392
11 | 69:25.18 | 5:00.16 | 312393 | 334908
12 | 74:25.34 | 2:09.32 | 334909 | 344615


Характеристики диапазона извлечения и сообщения об ошибках

Выбранный диапазон

Имя файла D:\EAC\Leopold Stokowski - The Maverick Conductor (CD2).wav

Пиковый уровень 97.7 %
Качество диапазона 100.0 %
CRC теста 39E8966E
CRC копии 39E8966E
Копирование… OK

Ошибок не произошло


AccurateRip: сводка

Трек 1 нет в базе данных
Трек 2 нет в базе данных
Трек 3 нет в базе данных
Трек 4 нет в базе данных
Трек 5 нет в базе данных
Трек 6 нет в базе данных
Трек 7 нет в базе данных
Трек 8 нет в базе данных
Трек 9 нет в базе данных
Трек 10 нет в базе данных
Трек 11 нет в базе данных
Трек 12 нет в базе данных

Ни одного трека нет в базе AccurateRip

Конец отчёта


CD3
Exact Audio Copy V0.99 prebeta 5 from 4. May 2009

Отчёт EAC об извлечении, выполненном 29. сентября 2009, 22:00

Leopold Stokowski / The Maverick Conductor (CD3)

Дисковод: Optiarc DVD RW AD-7203A Adapter: 4 ID: 1

Режим чтения : Достоверность
Использование точного потока : Да
Отключение кэша аудио : Да
Использование указателей C2 : Нет

Коррекция смещения при чтении : 48
Способность читать области Lead-in и Lead-out : Нет
Заполнение пропущенных сэмплов тишиной : Да
Удаление блоков с тишиной в начале и конце : Нет
При вычислениях CRC использовались нулевые сэмплы : Да
Интерфейс : Встроенный Win32-интерфейс для Win NT/2000

Выходной формат : Пользовательский кодировщик
Выбранный битрейт : 128 kBit/s
Качество : Высокий
Добавление ID3-тэга : Нет
Утилита сжатия : C:\Program Files\FLAC\flac.exe
Дополнительные параметры : -5 -V %s


TOC извлечённого CD

Трек | Старт | Длительность | Начальный сектор | Конечный сектор
––––––––––––––––––––––––––––––––––-
1 | 0:00.00 | 11:25.34 | 0 | 51408
2 | 11:25.34 | 8:34.41 | 51409 | 89999
3 | 20:00.00 | 6:11.73 | 90000 | 117897
4 | 26:11.73 | 10:17.68 | 117898 | 164240
5 | 36:29.66 | 5:27.54 | 164241 | 188819
6 | 41:57.45 | 6:42.17 | 188820 | 218986
7 | 48:39.62 | 9:02.04 | 218987 | 259640
8 | 57:41.66 | 4:14.27 | 259641 | 278717


Характеристики диапазона извлечения и сообщения об ошибках

Выбранный диапазон

Имя файла D:\EAC\Leopold Stokowski - The Maverick Conductor (CD3).wav

Пиковый уровень 95.7 %
Качество диапазона 100.0 %
CRC теста 9801207C
CRC копии 9801207C
Копирование… OK

Ошибок не произошло


AccurateRip: сводка

Трек 1 нет в базе данных
Трек 2 нет в базе данных
Трек 3 нет в базе данных
Трек 4 нет в базе данных
Трек 5 нет в базе данных
Трек 6 нет в базе данных
Трек 7 нет в базе данных
Трек 8 нет в базе данных

Ни одного трека нет в базе AccurateRip

Конец отчёта


CD4
Exact Audio Copy V0.99 prebeta 5 from 4. May 2009

Отчёт EAC об извлечении, выполненном 29. сентября 2009, 23:25

Leopold Stokowski / The Maverick Conductor (CD4)

Дисковод: Optiarc DVD RW AD-7203A Adapter: 4 ID: 1

Режим чтения : Достоверность
Использование точного потока : Да
Отключение кэша аудио : Да
Использование указателей C2 : Нет

Коррекция смещения при чтении : 48
Способность читать области Lead-in и Lead-out : Нет
Заполнение пропущенных сэмплов тишиной : Да
Удаление блоков с тишиной в начале и конце : Нет
При вычислениях CRC использовались нулевые сэмплы : Да
Интерфейс : Встроенный Win32-интерфейс для Win NT/2000

Выходной формат : Пользовательский кодировщик
Выбранный битрейт : 128 kBit/s
Качество : Высокий
Добавление ID3-тэга : Нет
Утилита сжатия : C:\Program Files\FLAC\flac.exe
Дополнительные параметры : -5 -V %s


TOC извлечённого CD

Трек | Старт | Длительность | Начальный сектор | Конечный сектор
––––––––––––––––––––––––––––––––––-
1 | 0:00.00 | 15:09.17 | 0 | 68191
2 | 15:09.17 | 19:53.22 | 68192 | 157688
3 | 35:02.39 | 11:33.26 | 157689 | 209689
4 | 46:35.65 | 15:59.06 | 209690 | 281620
5 | 62:34.71 | 6:35.64 | 281621 | 311309


Характеристики диапазона извлечения и сообщения об ошибках

Выбранный диапазон

Имя файла D:\EAC\Leopold Stokowski - The Maverick Conductor (CD4).wav

Пиковый уровень 99.2 %
Качество диапазона 99.9 %
CRC теста 682E0919
CRC копии 682E0919
Копирование… OK

Ошибок не произошло


AccurateRip: сводка

Трек 1 нет в базе данных
Трек 2 нет в базе данных
Трек 3 нет в базе данных
Трек 4 нет в базе данных
Трек 5 нет в базе данных

Ни одного трека нет в базе AccurateRip

Конец отчёта


CD5
Exact Audio Copy V0.99 prebeta 5 from 4. May 2009

Отчёт EAC об извлечении, выполненном 30. сентября 2009, 0:18

Leopold Stokowski / The Maverick Conductor (CD5)

Дисковод: Optiarc DVD RW AD-7203A Adapter: 4 ID: 1

Режим чтения : Достоверность
Использование точного потока : Да
Отключение кэша аудио : Да
Использование указателей C2 : Нет

Коррекция смещения при чтении : 48
Способность читать области Lead-in и Lead-out : Нет
Заполнение пропущенных сэмплов тишиной : Да
Удаление блоков с тишиной в начале и конце : Нет
При вычислениях CRC использовались нулевые сэмплы : Да
Интерфейс : Встроенный Win32-интерфейс для Win NT/2000

Выходной формат : Пользовательский кодировщик
Выбранный битрейт : 128 kBit/s
Качество : Высокий
Добавление ID3-тэга : Нет
Утилита сжатия : C:\Program Files\FLAC\flac.exe
Дополнительные параметры : -5 -V %s


TOC извлечённого CD

Трек | Старт | Длительность | Начальный сектор | Конечный сектор
––––––––––––––––––––––––––––––––––-
1 | 0:00.00 | 6:36.56 | 0 | 29755
2 | 6:36.56 | 8:03.58 | 29756 | 66038
3 | 14:40.39 | 4:04.15 | 66039 | 84353
4 | 18:44.54 | 7:37.61 | 84354 | 118689
5 | 26:22.40 | 7:47.53 | 118690 | 153767
6 | 34:10.18 | 5:44.54 | 153768 | 179621
7 | 39:54.72 | 6:43.67 | 179622 | 209913
8 | 46:38.64 | 2:21.53 | 209914 | 220541
9 | 49:00.42 | 10:19.14 | 220542 | 266980
10 | 59:19.56 | 1:56.57 | 266981 | 275737
11 | 61:16.38 | 9:38.50 | 275738 | 319137
12 | 70:55.13 | 4:09.44 | 319138 | 337856


Характеристики диапазона извлечения и сообщения об ошибках

Выбранный диапазон

Имя файла D:\EAC\Leopold Stokowski - The Maverick Conductor (CD5).wav

Пиковый уровень 99.6 %
Качество диапазона 100.0 %
CRC теста 7F2E9389
CRC копии 7F2E9389
Копирование… OK

Ошибок не произошло


AccurateRip: сводка

Трек 1 точность не определена (достоверность 1) [5F1F71A2], AccurateRip вернул [9E23AA04]
Трек 2 точность не определена (достоверность 1) [3BECE6A5], AccurateRip вернул [B481EE92]
Трек 3 точность не определена (достоверность 1) [264418A4], AccurateRip вернул [569984E9]
Трек 4 точность не определена (достоверность 1) [0D82827E], AccurateRip вернул [D256B16D]
Трек 5 точность не определена (достоверность 1) [F12D4CB3], AccurateRip вернул [FA314935]
Трек 6 точность не определена (достоверность 1) [AE96693B], AccurateRip вернул [F44C7C49]
Трек 7 точность не определена (достоверность 1) [1D41F57C], AccurateRip вернул [7CEFF16B]
Трек 8 точность не определена (достоверность 1) [F846FACA], AccurateRip вернул [80FA57CE]
Трек 9 точность не определена (достоверность 1) [AFF9C48E], AccurateRip вернул [3DBFAFB7]
Трек 10 точность не определена (достоверность 1) [77DBDE2A], AccurateRip вернул [0440A7AA]
Трек 11 точность не определена (достоверность 1) [B89D716E], AccurateRip вернул [36E6C6B9]
Трек 12 точность не определена (достоверность 1) [C9CF5275], AccurateRip вернул [8A40A515]

Ни один трек не прошёл проверки на точность
В вашей базе может быть иной вариант штамповки диска

Конец отчёта


CD6
Exact Audio Copy V0.99 prebeta 5 from 4. May 2009

Отчёт EAC об извлечении, выполненном 30. сентября 2009, 20:32

Leopold Stokowski / The Maverick Conductor (CD6)

Дисковод: Optiarc DVD RW AD-7203A Adapter: 4 ID: 1

Режим чтения : Достоверность
Использование точного потока : Да
Отключение кэша аудио : Да
Использование указателей C2 : Нет

Коррекция смещения при чтении : 48
Способность читать области Lead-in и Lead-out : Нет
Заполнение пропущенных сэмплов тишиной : Да
Удаление блоков с тишиной в начале и конце : Нет
При вычислениях CRC использовались нулевые сэмплы : Да
Интерфейс : Встроенный Win32-интерфейс для Win NT/2000

Выходной формат : Пользовательский кодировщик
Выбранный битрейт : 128 kBit/s
Качество : Высокий
Добавление ID3-тэга : Нет
Утилита сжатия : C:\Program Files\FLAC\flac.exe
Дополнительные параметры : -5 -V %s


TOC извлечённого CD

Трек | Старт | Длительность | Начальный сектор | Конечный сектор
––––––––––––––––––––––––––––––––––-
1 | 0:00.00 | 11:21.05 | 0 | 51079
2 | 11:21.05 | 9:42.71 | 51080 | 94800
3 | 21:04.01 | 4:11.69 | 94801 | 113694
4 | 25:15.70 | 12:59.58 | 113695 | 172177
5 | 38:15.53 | 7:00.45 | 172178 | 203722
6 | 45:16.23 | 0:55.01 | 203723 | 207848
7 | 46:11.24 | 2:24.05 | 207849 | 218653
8 | 48:35.29 | 1:17.34 | 218654 | 224462
9 | 49:52.63 | 1:05.55 | 224463 | 229392
10 | 50:58.43 | 1:50.69 | 229393 | 237711
11 | 52:49.37 | 1:59.05 | 237712 | 246641
12 | 54:48.42 | 3:10.16 | 246642 | 260907
13 | 57:58.58 | 0:14.74 | 260908 | 262031
14 | 58:13.57 | 1:08.04 | 262032 | 267135
15 | 59:21.61 | 5:29.40 | 267136 | 291850
16 | 64:51.26 | 3:51.31 | 291851 | 309206
17 | 68:42.57 | 3:48.14 | 309207 | 326320
18 | 72:30.71 | 3:32.06 | 326321 | 342226


Характеристики диапазона извлечения и сообщения об ошибках

Выбранный диапазон

Имя файла D:\EAC\Leopold Stokowski - The Maverick Conductor (CD6).wav

Пиковый уровень 98.7 %
Качество диапазона 100.0 %
CRC теста C652A5C1
CRC копии C652A5C1
Копирование… OK

Ошибок не произошло


AccurateRip: сводка

Трек 1 нет в базе данных
Трек 2 нет в базе данных
Трек 3 нет в базе данных
Трек 4 нет в базе данных
Трек 5 нет в базе данных
Трек 6 нет в базе данных
Трек 7 нет в базе данных
Трек 8 нет в базе данных
Трек 9 нет в базе данных
Трек 10 нет в базе данных
Трек 11 нет в базе данных
Трек 12 нет в базе данных
Трек 13 нет в базе данных
Трек 14 нет в базе данных
Трек 15 нет в базе данных
Трек 16 нет в базе данных
Трек 17 нет в базе данных
Трек 18 нет в базе данных

Ни одного трека нет в базе AccurateRip

Конец отчёта


CD7
Exact Audio Copy V0.99 prebeta 5 from 4. May 2009

Отчёт EAC об извлечении, выполненном 30. сентября 2009, 21:29

Leopold Stokowski / The Maverick Conductor (CD7)

Дисковод: Optiarc DVD RW AD-7203A Adapter: 4 ID: 1

Режим чтения : Достоверность
Использование точного потока : Да
Отключение кэша аудио : Да
Использование указателей C2 : Нет

Коррекция смещения при чтении : 48
Способность читать области Lead-in и Lead-out : Нет
Заполнение пропущенных сэмплов тишиной : Да
Удаление блоков с тишиной в начале и конце : Нет
При вычислениях CRC использовались нулевые сэмплы : Да
Интерфейс : Встроенный Win32-интерфейс для Win NT/2000

Выходной формат : Пользовательский кодировщик
Выбранный битрейт : 128 kBit/s
Качество : Высокий
Добавление ID3-тэга : Нет
Утилита сжатия : C:\Program Files\FLAC\flac.exe
Дополнительные параметры : -5 -V %s


TOC извлечённого CD

Трек | Старт | Длительность | Начальный сектор | Конечный сектор
––––––––––––––––––––––––––––––––––-
1 | 0:00.00 | 2:27.55 | 0 | 11079
2 | 2:27.55 | 11:22.24 | 11080 | 62253
3 | 13:50.04 | 23:46.34 | 62254 | 169237
4 | 37:36.38 | 7:29.69 | 169238 | 202981
5 | 45:06.32 | 3:54.20 | 202982 | 220551
6 | 49:00.52 | 1:57.43 | 220552 | 229369
7 | 50:58.20 | 2:14.71 | 229370 | 239490
8 | 53:13.16 | 6:28.61 | 239491 | 268651
9 | 59:42.02 | 7:59.28 | 268652 | 304604
10 | 67:41.30 | 7:36.50 | 304605 | 338854


Характеристики диапазона извлечения и сообщения об ошибках

Выбранный диапазон

Имя файла D:\EAC\Leopold Stokowski - The Maverick Conductor (CD7).wav

Пиковый уровень 98.7 %
Качество диапазона 99.9 %
CRC теста 95D537C9
CRC копии 95D537C9
Копирование… OK

Ошибок не произошло


AccurateRip: сводка

Трек 1 нет в базе данных
Трек 2 нет в базе данных
Трек 3 нет в базе данных
Трек 4 нет в базе данных
Трек 5 нет в базе данных
Трек 6 нет в базе данных
Трек 7 нет в базе данных
Трек 8 нет в базе данных
Трек 9 нет в базе данных
Трек 10 нет в базе данных

Ни одного трека нет в базе AccurateRip

Конец отчёта


CD8
Exact Audio Copy V0.99 prebeta 5 from 4. May 2009

Отчёт EAC об извлечении, выполненном 30. сентября 2009, 22:34

Leopold Stokowski / The Maverick Conductor (CD8)

Дисковод: Optiarc DVD RW AD-7203A Adapter: 4 ID: 1

Режим чтения : Достоверность
Использование точного потока : Да
Отключение кэша аудио : Да
Использование указателей C2 : Нет

Коррекция смещения при чтении : 48
Способность читать области Lead-in и Lead-out : Нет
Заполнение пропущенных сэмплов тишиной : Да
Удаление блоков с тишиной в начале и конце : Нет
При вычислениях CRC использовались нулевые сэмплы : Да
Интерфейс : Встроенный Win32-интерфейс для Win NT/2000

Выходной формат : Пользовательский кодировщик
Выбранный битрейт : 128 kBit/s
Качество : Высокий
Добавление ID3-тэга : Нет
Утилита сжатия : C:\Program Files\FLAC\flac.exe
Дополнительные параметры : -5 -V %s


TOC извлечённого CD

Трек | Старт | Длительность | Начальный сектор | Конечный сектор
––––––––––––––––––––––––––––––––––-
1 | 0:00.00 | 2:13.32 | 0 | 10006
2 | 2:13.32 | 1:41.40 | 10007 | 17621
3 | 3:54.72 | 2:42.63 | 17622 | 29834
4 | 6:37.60 | 1:50.40 | 29835 | 38124
5 | 8:28.25 | 1:45.47 | 38125 | 46046
6 | 10:13.72 | 1:35.48 | 46047 | 53219
7 | 11:49.45 | 3:13.47 | 53220 | 67741
8 | 15:03.17 | 2:33.30 | 67742 | 79246
9 | 17:36.47 | 4:07.53 | 79247 | 97824
10 | 21:44.25 | 0:52.25 | 97825 | 101749
11 | 22:36.50 | 1:55.31 | 101750 | 110405
12 | 24:32.06 | 2:26.69 | 110406 | 121424
13 | 26:59.00 | 1:17.47 | 121425 | 127246
14 | 28:16.47 | 2:36.03 | 127247 | 138949
15 | 30:52.50 | 4:07.22 | 138950 | 157496
16 | 34:59.72 | 1:47.37 | 157497 | 165558
17 | 36:47.34 | 1:58.68 | 165559 | 174476
18 | 38:46.27 | 1:21.68 | 174477 | 180619
19 | 40:08.20 | 1:11.13 | 180620 | 185957
20 | 41:19.33 | 0:57.39 | 185958 | 190271
21 | 42:16.72 | 2:41.45 | 190272 | 202391
22 | 44:58.42 | 1:56.69 | 202392 | 211160
23 | 46:55.36 | 0:59.26 | 211161 | 215611
24 | 47:54.62 | 1:38.67 | 215612 | 223028
25 | 49:33.54 | 2:21.43 | 223029 | 233646
26 | 51:55.22 | 3:10.54 | 233647 | 247950
27 | 55:06.01 | 3:35.01 | 247951 | 264076
28 | 58:41.02 | 5:23.60 | 264077 | 288361
29 | 64:04.62 | 3:05.73 | 288362 | 302309
30 | 67:10.60 | 5:07.19 | 302310 | 325353


Характеристики диапазона извлечения и сообщения об ошибках

Выбранный диапазон

Имя файла D:\EAC\Leopold Stokowski - The Maverick Conductor (CD8).wav

Пиковый уровень 99.5 %
Качество диапазона 99.9 %
CRC теста 77128A6B
CRC копии 77128A6B
Копирование… OK

Ошибок не произошло


AccurateRip: сводка

Трек 1 нет в базе данных
Трек 2 нет в базе данных
Трек 3 нет в базе данных
Трек 4 нет в базе данных
Трек 5 нет в базе данных
Трек 6 нет в базе данных
Трек 7 нет в базе данных
Трек 8 нет в базе данных
Трек 9 нет в базе данных
Трек 10 нет в базе данных
Трек 11 нет в базе данных
Трек 12 нет в базе данных
Трек 13 нет в базе данных
Трек 14 нет в базе данных
Трек 15 нет в базе данных
Трек 16 нет в базе данных
Трек 17 нет в базе данных
Трек 18 нет в базе данных
Трек 19 нет в базе данных
Трек 20 нет в базе данных
Трек 21 нет в базе данных
Трек 22 нет в базе данных
Трек 23 нет в базе данных
Трек 24 нет в базе данных
Трек 25 нет в базе данных
Трек 26 нет в базе данных
Трек 27 нет в базе данных
Трек 28 нет в базе данных
Трек 29 нет в базе данных
Трек 30 нет в базе данных

Ни одного трека нет в базе AccurateRip

Конец отчёта


CD9
Exact Audio Copy V0.99 prebeta 5 from 4. May 2009

Отчёт EAC об извлечении, выполненном 30. сентября 2009, 23:23

Leopold Stokowski / The Maverick Conductor (CD9)

Дисковод: Optiarc DVD RW AD-7203A Adapter: 4 ID: 1

Режим чтения : Достоверность
Использование точного потока : Да
Отключение кэша аудио : Да
Использование указателей C2 : Нет

Коррекция смещения при чтении : 48
Способность читать области Lead-in и Lead-out : Нет
Заполнение пропущенных сэмплов тишиной : Да
Удаление блоков с тишиной в начале и конце : Нет
При вычислениях CRC использовались нулевые сэмплы : Да
Интерфейс : Встроенный Win32-интерфейс для Win NT/2000

Выходной формат : Пользовательский кодировщик
Выбранный битрейт : 128 kBit/s
Качество : Высокий
Добавление ID3-тэга : Нет
Утилита сжатия : C:\Program Files\FLAC\flac.exe
Дополнительные параметры : -5 -V %s


TOC извлечённого CD

Трек | Старт | Длительность | Начальный сектор | Конечный сектор
––––––––––––––––––––––––––––––––––-
1 | 0:00.00 | 2:42.50 | 0 | 12199
2 | 2:42.50 | 5:43.15 | 12200 | 37939
3 | 8:25.65 | 6:24.74 | 37940 | 66813
4 | 14:50.64 | 5:18.36 | 66814 | 90699
5 | 20:09.25 | 15:10.07 | 90700 | 158956
6 | 35:19.32 | 9:36.05 | 158957 | 202161
7 | 44:55.37 | 12:31.50 | 202162 | 258536
8 | 57:27.12 | 12:22.31 | 258537 | 314217
9 | 69:49.43 | 3:01.02 | 314218 | 327794
10 | 72:50.45 | 2:35.31 | 327795 | 339450


Характеристики диапазона извлечения и сообщения об ошибках

Выбранный диапазон

Имя файла D:\EAC\Leopold Stokowski - The Maverick Conductor (CD9).wav

Пиковый уровень 95.5 %
Качество диапазона 100.0 %
CRC теста D30C02FF
CRC копии D30C02FF
Копирование… OK

Ошибок не произошло


AccurateRip: сводка

Трек 1 нет в базе данных
Трек 2 нет в базе данных
Трек 3 нет в базе данных
Трек 4 нет в базе данных
Трек 5 нет в базе данных
Трек 6 нет в базе данных
Трек 7 нет в базе данных
Трек 8 нет в базе данных
Трек 9 нет в базе данных
Трек 10 нет в базе данных

Ни одного трека нет в базе AccurateRip

Конец отчёта


CD10
Exact Audio Copy V0.99 prebeta 5 from 4. May 2009

Отчёт EAC об извлечении, выполненном 1. октября 2009, 0:16

Leopold Stokowski / The Maverick Conductor (CD10)

Дисковод: Optiarc DVD RW AD-7203A Adapter: 4 ID: 1

Режим чтения : Достоверность
Использование точного потока : Да
Отключение кэша аудио : Да
Использование указателей C2 : Нет

Коррекция смещения при чтении : 48
Способность читать области Lead-in и Lead-out : Нет
Заполнение пропущенных сэмплов тишиной : Да
Удаление блоков с тишиной в начале и конце : Нет
При вычислениях CRC использовались нулевые сэмплы : Да
Интерфейс : Встроенный Win32-интерфейс для Win NT/2000

Выходной формат : Пользовательский кодировщик
Выбранный битрейт : 128 kBit/s
Качество : Высокий
Добавление ID3-тэга : Нет
Утилита сжатия : C:\Program Files\FLAC\flac.exe
Дополнительные параметры : -5 -V %s


TOC извлечённого CD

Трек | Старт | Длительность | Начальный сектор | Конечный сектор
––––––––––––––––––––––––––––––––––-
1 | 0:00.00 | 9:28.12 | 0 | 42611
2 | 9:28.12 | 4:09.25 | 42612 | 61311
3 | 13:37.37 | 8:57.42 | 61312 | 101628
4 | 22:35.04 | 11:13.63 | 101629 | 152166
5 | 33:48.67 | 3:08.13 | 152167 | 166279
6 | 36:57.05 | 1:53.20 | 166280 | 174774
7 | 38:50.25 | 21:40.30 | 174775 | 272304
8 | 60:30.55 | 6:42.12 | 272305 | 302466
9 | 67:12.67 | 5:34.08 | 302467 | 327524


Характеристики диапазона извлечения и сообщения об ошибках

Выбранный диапазон

Имя файла D:\EAC\Leopold Stokowski - The Maverick Conductor (CD10).wav

Пиковый уровень 99.5 %
Качество диапазона 100.0 %
CRC теста 85882F54
CRC копии 85882F54
Копирование… OK

Ошибок не произошло


AccurateRip: сводка

Трек 1 нет в базе данных
Трек 2 нет в базе данных
Трек 3 нет в базе данных
Трек 4 нет в базе данных
Трек 5 нет в базе данных
Трек 6 нет в базе данных
Трек 7 нет в базе данных
Трек 8 нет в базе данных
Трек 9 нет в базе данных

Ни одного трека нет в базе AccurateRip

Конец отчёта


Thanks to the original ripper.