Tags
Language
Tags

Les Petits Chanteurs De Saint-Marc - Nos Reves (2006)

Posted By: tirexiss
Les Petits Chanteurs De Saint-Marc - Nos Reves (2006)

Les Petits Chanteurs De Saint-Marc - Nos Reves (2006)
EAC | FLAC (image+.cue, log) | Covers Included | 55:21 | 455 MB
Genre: Classical, Choral | Label: Wagram | Catalog: 3115902

Famed for their appearance in Christophe Barratier's 2004 Oscar-nominated Les Choristes, Les Petits Chanteurs de Saint-Marc (known in Spain as Los Chicos del Coro de Saint-Marc) are one of the world's most popular children's choirs. Formed in 1986 by director Nicolas Porte at Lyon's Saint-Marc College, the mixed choir of 75 singers, aged ten to 15, has performed its mixture of spiritual hymns, Gregorian chants, and contemporary classical pieces across Europe, the U.S., and Asia ever since. In 1995, they were appointed the official children's choir of the Basilica Notre-Dame de Fourviere, where they regularly take part in church services and religious celebrations, but their most high-profile achievement came when member Jean-Baptise Maunier landed the lead role in Les Choristes. Since their 1988 self-titled debut, they have also found success with a string of studio albums, including 2007's Nos Reves and 2011's Sing the Beatles. – Jon O'Brien

Les Petits Chanteurs De Saint-Marc - Nos Reves (2006)


Track List:

01. Nos Reves (3:24)
02. Une Chanson Douce (2:31)
03. Printemps De Vie (3:27)
04. Passe Le Temps (3:14)
05. Le Monde Est A Toi (3:38)
06. S'eleve (4:09)
07. Il Manquait Un Ange (3:19)
08. Di Brama (4:37)
09. Si Tous Les Enfants (2:39)
10. Chanter La Terre (3:54)
11. Une Voix (2:55)
12. Aux Pays Des Merveilles (3:17)
13. Des Clowns (3:44)
14. L'an 2001 (3:33)
15. Une Chanson Douce (version chorale) (2:31)
16. Un Geste (4:31)

Performers:
Les Petits Chanteurs de Saint-Marc
Direction: Nicolas Porte

Exact Audio Copy V1.0 beta 3 from 29. August 2011

Отчёт EAC об извлечении, выполненном 12. января 2018, 14:55

Les Petits Chanteurs de Saint-Marc / Nos Reves

Дисковод: Optiarc DVD RW AD-7280S Adapter: 5 ID: 0

Режим чтения : Достоверность
Использование точного потока : Да
Отключение кэша аудио : Да
Использование указателей C2 : Нет

Коррекция смещения при чтении : 48
Способность читать области Lead-in и Lead-out : Нет
Заполнение пропущенных сэмплов тишиной : Да
Удаление блоков с тишиной в начале и конце : Нет
При вычислениях CRC использовались нулевые сэмплы : Да
Интерфейс : Встроенный Win32-интерфейс для Win NT/2000

Выходной формат : Пользовательский кодировщик
Выбранный битрейт : 128 kBit/s
Качество : Высокий
Добавление ID3-тега : Нет
Утилита сжатия : C:\Program Files\Exact Audio Copy\Flac\flac.exe
Дополнительные параметры : -V -8 -T "Date=%year%" -T "Genre=%genre%" %source%


TOC извлечённого CD

Трек | Старт | Длительность | Начальный сектор | Конечный сектор
––––––––––––––––––––––––––––––––––-
1 | 0:00.17 | 3:23.43 | 17 | 15284
2 | 3:23.60 | 2:30.45 | 15285 | 26579
3 | 5:54.30 | 3:27.10 | 26580 | 42114
4 | 9:21.40 | 3:13.64 | 42115 | 56653
5 | 12:35.29 | 3:37.39 | 56654 | 72967
6 | 16:12.68 | 4:09.33 | 72968 | 91675
7 | 20:22.26 | 3:19.04 | 91676 | 106604
8 | 23:41.30 | 4:37.15 | 106605 | 127394
9 | 28:18.45 | 2:39.32 | 127395 | 139351
10 | 30:58.02 | 3:54.16 | 139352 | 156917
11 | 34:52.18 | 2:54.39 | 156918 | 170006
12 | 37:46.57 | 3:16.47 | 170007 | 184753
13 | 41:03.29 | 3:43.51 | 184754 | 201529
14 | 44:47.05 | 3:33.27 | 201530 | 217531
15 | 48:20.32 | 2:30.52 | 217532 | 228833
16 | 50:51.09 | 4:30.71 | 228834 | 249154


Характеристики диапазона извлечения и сообщения об ошибках

Выбранный диапазон

Имя файла C:\Documents and Settings\biotox\Рабочий стол\Новая папка\Les Petits Chanteurs de Saint-Marc - Nos Reves.wav

Пиковый уровень 99.8 %
Скорость извлечения 4.0 X
Качество диапазона 100.0 %
CRC теста 187D6728
CRC копии 187D6728
Копирование… OK

Ошибок не произошло


AccurateRip: сводка

Трек 1 точность не определена (достоверность 3) [80BE9717], AccurateRip вернул [6CE036C3] (AR v2)
Трек 2 точность не определена (достоверность 3) [C1F4BE6C], AccurateRip вернул [222DD4E3] (AR v2)
Трек 3 точность не определена (достоверность 3) [3B15DCD4], AccurateRip вернул [AFEED04A] (AR v2)
Трек 4 точность не определена (достоверность 3) [F8675B9F], AccurateRip вернул [4CF9F002] (AR v2)
Трек 5 точность не определена (достоверность 3) [359EAE89], AccurateRip вернул [42606548] (AR v2)
Трек 6 точность не определена (достоверность 3) [C180A9D9], AccurateRip вернул [16AD56AB] (AR v2)
Трек 7 точность не определена (достоверность 3) [10A0C12D], AccurateRip вернул [F40C191C] (AR v2)
Трек 8 точность не определена (достоверность 3) [E454F539], AccurateRip вернул [ACE141B0] (AR v2)
Трек 9 точность не определена (достоверность 3) [75103DB1], AccurateRip вернул [B216238A] (AR v2)
Трек 10 точность не определена (достоверность 3) [B7C08BEA], AccurateRip вернул [32F688B0] (AR v2)
Трек 11 точность не определена (достоверность 3) [78EF6FD2], AccurateRip вернул [38649DE3] (AR v2)
Трек 12 точность не определена (достоверность 3) [BFB006CE], AccurateRip вернул [3040B2C1] (AR v2)
Трек 13 точность не определена (достоверность 3) [95E35CC3], AccurateRip вернул [D832A556] (AR v2)
Трек 14 точность не определена (достоверность 3) [F4EE0861], AccurateRip вернул [D92BCC7B] (AR v2)
Трек 15 точность не определена (достоверность 3) [A76DDD28], AccurateRip вернул [0E6A4AB7] (AR v2)
Трек 16 точность не определена (достоверность 3) [FD3A55AF], AccurateRip вернул [87E32BAA] (AR v2)

Ни один трек не прошёл проверки на точность
В вашей базе может быть иной вариант штамповки диска

Конец отчёта

==== Контрольная сумма отчёта F83605E6FA9C2687E420BD088916DB4A33FEAE335CE2BCDE20D5752BF20C4C89 ====

[CUETools log; Date: 13.01.2018 10:26:58; Version: 2.1.5]
Pregap length 00:00:17.
[CTDB TOCID: uHXj0rKIYdpPvIq2VWvC.2HBhHY-] found.
Track | CTDB Status
1 | (5/5) Accurately ripped
2 | (5/5) Accurately ripped
3 | (4/5) Accurately ripped
4 | (4/5) Accurately ripped
5 | (5/5) Accurately ripped
6 | (5/5) Accurately ripped
7 | (4/5) Accurately ripped
8 | (4/5) Accurately ripped
9 | (5/5) Accurately ripped
10 | (4/5) Accurately ripped
11 | (4/5) Accurately ripped
12 | (5/5) Accurately ripped
13 | (5/5) Accurately ripped
14 | (5/5) Accurately ripped
15 | (5/5) Accurately ripped
16 | (5/5) Accurately ripped
[AccurateRip ID: 001fd9d1-01804683-d90cfa10] found.
Track [ CRC | V2 ] Status
01 [bcad8ffa|80be9717] (0+0/3) No match
02 [c82ff8c4|c1f4be6c] (0+0/3) No match
03 [58e8bdfb|3b15dcd4] (0+0/3) No match
04 [7903110e|f8675b9f] (0+0/3) No match
05 [bb784fc5|359eae89] (0+0/3) No match
06 [5a5aaffe|c180a9d9] (0+0/3) No match
07 [9a945a05|10a0c12d] (0+0/3) No match
08 [5c6e2306|e454f539] (0+0/3) No match
09 [667ee2f3|75103db1] (0+0/3) No match
10 [95a7d168|b7c08bea] (0+0/3) No match
11 [3d8f35d7|78ef6fd2] (0+0/3) No match
12 [a5a52371|bfb006ce] (0+0/3) No match
13 [fd91b621|95e35cc3] (0+0/3) No match
14 [fdfc86a8|f4ee0861] (0+0/3) No match
15 [546359b3|a76ddd28] (0+0/3) No match
16 [350a0842|fd3a55af] (0+0/3) No match
Offsetted by -664:
01 [f8ec3837] (0/3) No match (V2 was not tested)
02 [a74c8a14] (0/3) No match (V2 was not tested)
03 [1a9d549b] (0/3) No match (V2 was not tested)
04 [26aa732e] (0/3) No match (V2 was not tested)
05 [0bcaecb5] (0/3) No match (V2 was not tested)
06 [d8496336] (0/3) No match (V2 was not tested)
07 [d2285ecd] (0/3) No match (V2 was not tested)
08 [341cd156] (0/3) No match (V2 was not tested)
09 [1a4b4683] (0/3) No match (V2 was not tested)
10 [45101190] (0/3) No match (V2 was not tested)
11 [6647fa9f] (0/3) No match (V2 was not tested)
12 [6c165e59] (0/3) No match (V2 was not tested)
13 [7e8679c1] (0/3) No match (V2 was not tested)
14 [2aa49cd8] (0/3) No match (V2 was not tested)
15 [39fffedb] (0/3) No match (V2 was not tested)
16 [adb88a67] (0/3) No match (V2 was not tested)

Track Peak [ CRC32 ] [W/O NULL] [ LOG ]
– 99,8 [187D6728] [A187DACD] CRC32
01 99,8 [336CFF71] [0E6DDDED]
02 94,3 [C8E83FC1] [4EA4BB86]
03 99,8 [AD485D7C] [DB0E0331]
04 94,3 [3DF0EA6A] [AE0EBD73]
05 94,3 [CB9A15E8] [A80AB84F]
06 94,3 [B7CAF5B6] [3203B324]
07 99,8 [1A19F25D] [4329AF2F]
08 99,8 [7F492D32] [A68BB534]
09 94,3 [1A453A12] [899D2721]
10 94,3 [9AC5F47F] [1616E979]
11 99,8 [01B52EE8] [A1DEBA94]
12 94,3 [770B1C35] [D092A472]
13 99,8 [6BEB9EE7] [63E1F8B8]
14 99,8 [8B5E555B] [221DF25F]
15 89,0 [E8B536D7] [96E94A57]
16 74,9 [E8751B1D] [1D56A956]

Thanks to the Original ripper biotox18!

Download: