Subcategories

Joe Dassin - Les Deux Mondes De Joe Dassin - 1967 [Re-Upload]

Posted By: technick
Joe Dassin -  Les Deux Mondes De Joe Dassin - 1967 [Re-Upload]

Joe Dassin - Les Deux Mondes De Joe Dassin (1967)
[1995, 15 CD Box-Set, CD2]

EAC: ape (image) + cue + log | RAR, 3%, 200,74 MB
mp3, 320 kbps | RAR, 3% 73,48 MB | Scans | RAR, 3% 6,31 MB
Label: Sony Music Entertainment (France) S.A. | Cat.№ COL 480767 2

Second disc from 15CD Box-set containing all Joe Dassin`s albums. By the early 1970s, Dassin's songs were on the top of the charts in France and he had become very well known.
Not long after MIDEM music festival at Cannes in 1967, Dassin collaborated with Jean-Michel Rivat and Frank Thomas on an original work, the gunfighting-cowboy ballad "Les Dalton." Dassin had intended to give the song to another singer, but recorded it himself at Plait's vehement insistence; the result was a breakthrough smash hit, one that made Dassin a genuine star. His deep, charismatic voice and good looks made him highly popular with female audiences, but his American roots also lent him a certain novelty, a link to the free open spaces and flower-child optimism of his native country.
Exact Audio Copy V0.99 prebeta 5 from 4. May 2009

EAC extraction logfile from 24. October 2009, 13:38

Joe Dassin / Les Deux Mondes de Joe Dassin

Used drive : TEAC CD-W552GB Adapter: 1 ID: 0

Read mode : Secure
Utilize accurate stream : Yes
Defeat audio cache : Yes
Make use of C2 pointers : No

Read offset correction : 6
Overread into Lead-In and Lead-Out : No
Fill up missing offset samples with silence : Yes
Delete leading and trailing silent blocks : No
Null samples used in CRC calculations : Yes
Used interface : Installed external ASPI interface

Used output format : Internal WAV Routines
Sample format : 44.100 Hz; 16 Bit; Stereo


TOC of the extracted CD

Track | Start | Length | Start sector | End sector
––––––––––––––––––––––––––––-
1 | 0:00.32 | 2:41.55 | 32 | 12161
2 | 2:42.12 | 2:46.33 | 12162 | 24644
3 | 5:28.45 | 3:10.62 | 24645 | 38956
4 | 8:39.32 | 2:58.15 | 38957 | 52321
5 | 11:37.47 | 3:13.05 | 52322 | 66801
6 | 14:50.52 | 2:55.28 | 66802 | 79954
7 | 17:46.05 | 2:17.15 | 79955 | 90244
8 | 20:03.20 | 4:14.12 | 90245 | 109306
9 | 24:17.32 | 2:23.23 | 109307 | 120054
10 | 26:40.55 | 4:19.20 | 120055 | 139499
11 | 31:00.00 | 2:56.10 | 139500 | 152709


Range status and errors

Selected range

Filename J:\Losless\Images\Joe Dassin\1967 - Les Deux Mondes De Joe Dassin\Joe Dassin - 1967 - Les Deux Mondes De Joe Dassin (APE)\Joe Dassin - Les Deux Mondes de Joe Dassin.wav

Peak level 99.3 %
Range quality 100.0 %
Test CRC 1C98569F
Copy CRC 1C98569F
Copy OK

No errors occurred


AccurateRip summary

Track 1 not present in database
Track 2 not present in database
Track 3 not present in database
Track 4 not present in database
Track 5 not present in database
Track 6 not present in database
Track 7 not present in database
Track 8 not present in database
Track 9 not present in database
Track 10 not present in database
Track 11 not present in database

None of the tracks are present in the AccurateRip database

End of status report

Tracklist:
01. Les Dalton [02:41]
02. Pauvre Doudou [02:46]
03. Tout Bebe A Besoin D'une Maman [03:10]
04. The Last Thing Of My Mind [02:58]
05. St-James Infirmary Blues [03:13]
06. L'ombre D'un Amour [02:55]
07. Paper Heart [02:17]
08. Marie-Jeanne [04:14]
09. Hello Hello! [02:23]
10. My Funny Valentine [04:19]
11. Viens Voir Le Loup [02:56]
–––––––––––––
Total time [33:58]

Links to previous album of Box-set:
CD1 - Joe Dassin a New York

No mirrors, please!
Don't post these links at any web pages, please. Keep these files alive!

Welcome to My Blog!

NitroFlare: ape, mp3, scans.
pass: kermith