Tags
Language
Tags

Lester Young Trio - Lester Young Trio With Nat King Cole and Buddy Rich (1951) [Reissue 1994]

Posted By: gribovar
Lester Young Trio - Lester Young Trio With Nat King Cole and Buddy Rich (1951) [Reissue 1994]

Lester Young Trio - Lester Young Trio With Nat King Cole and Buddy Rich (1951) [Reissue 1994]
EAC Rip | FLAC (image+.cue+log) - 164 MB | MP3 CBR 320 kbps (LAME 3.93) - 151 MB | Covers (8 MB) included
Genre: Jazz, Swing | RAR 3% Rec. | Label: Verve (559 659-2)

Lester Young's significance in jazz is not hard to gauge. His playing influenced almost every saxophonist that came after him. On this release, we hear Young teamed up with two other jazz legends, drummer Buddy Rich and Nat "King" Cole on piano. Following 10 tracks by this unique trio, we are treated to four additional tunes as performed by a sextet led by Young. The trio portion of this album is especially lush and intriguing, featuring wonderful renditions of Young's original, "Back to the Land," Gershwin's "The Man I Love," and a duet version of the gorgeous ballad, "Peg O' My Heart" (Rich had gone out to get something to eat). Cole's intimate piano style wonderfully complements Young's light, airy tone and unorthodox phrasing, and Rich, known for a flashy approach, plays quite sensitively here, using brushes on most tunes. Highlights on Lester Young Trio include "I Want To Be Happy" and "I've Found a New Baby," the latter of which features the sextet in swinging form.
Tracklist:
01. Back to the Land
02. I Cover the Waterfront (take one)
03. I Cover the Waterfront (take two)
04. Somebody Loves Me
05. I've Found a New Baby
06. The Man I Love
07. Peg o' My Heart
08. I Want to Be Happy
09. Mean to Me
10. Back to the Land
11. I've Found a New Baby
12. Rosetta
13. Sweet Lorraine
14. Blowed and Gone

Total time: 01:00:43

Exact Audio Copy V1.0 beta 3 from 29. August 2011

Отчёт EAC об извлечении, выполненном 24. января 2012, 8:56

Lester Young Trio / with Nat "King" Cole and Buddy Rich

Дисковод: HL-DT-STDVD-RAM GH22NP21 Adapter: 0 ID: 0

Режим чтения : Достоверность
Использование точного потока : Да
Отключение кэша аудио : Да
Использование указателей C2 : Нет

Коррекция смещения при чтении : 102
Способность читать области Lead-in и Lead-out : Нет
Заполнение пропущенных сэмплов тишиной : Да
Удаление блоков с тишиной в начале и конце : Нет
При вычислениях CRC использовались нулевые сэмплы : Да
Интерфейс : Встроенный Win32-интерфейс для Win NT/2000

Выходной формат : Пользовательский кодировщик
Выбранный битрейт : 1024 kBit/s
Качество : Высокий
Добавление ID3-тега : Нет
Утилита сжатия : C:\Program Files\Exact Audio Copy\FLAC\FLAC.EXE
Дополнительные параметры : -8 -V -T "ARTIST=%artist%" -T "TITLE=%title%" -T "ALBUM=%albumtitle%" -T "DATE=%year%" -T "TRACKNUMBER=%tracknr%" -T "GENRE=%genre%" -T "COMMENT=%comment%" %hascover%–picture="%coverfile%"%hascover% %source% -o %dest%


TOC извлечённого CD

Трек | Старт | Длительность | Начальный сектор | Конечный сектор
––––––––––––––––––––––––––––––––––-
1 | 0:00.32 | 3:54.55 | 32 | 17636
2 | 3:55.12 | 3:56.30 | 17637 | 35366
3 | 7:51.42 | 4:05.33 | 35367 | 53774
4 | 11:57.00 | 3:54.55 | 53775 | 71379
5 | 15:51.55 | 4:07.20 | 71380 | 89924
6 | 19:59.00 | 4:51.15 | 89925 | 111764
7 | 24:50.15 | 4:06.15 | 111765 | 130229
8 | 28:56.30 | 3:58.62 | 130230 | 148141
9 | 32:55.17 | 4:15.53 | 148142 | 167319
10 | 37:10.70 | 4:05.12 | 167320 | 185706
11 | 41:16.07 | 4:40.50 | 185707 | 206756
12 | 45:56.57 | 5:09.03 | 206757 | 229934
13 | 51:05.60 | 4:55.27 | 229935 | 252086
14 | 56:01.12 | 4:41.68 | 252087 | 273229


Характеристики диапазона извлечения и сообщения об ошибках

Выбранный диапазон

Имя файла D:\Lester Young Trio 1946 (lossless)\Lester Young Trio - with Nat ''King'' Cole and Buddy Rich.wav

Пиковый уровень 90.8 %
Скорость извлечения 2.7 X
Качество диапазона 99.9 %
CRC теста 9FFD3136
CRC копии 9FFD3136
Копирование… OK

Ошибок не произошло


AccurateRip: сводка

Трек 1 : извлечено точно (доверие 2) [5D4956B5] (AR v1)
Трек 2 : извлечено точно (доверие 2) [F70BF579] (AR v1)
Трек 3 : извлечено точно (доверие 2) [4B4819D3] (AR v1)
Трек 4 : извлечено точно (доверие 2) [0D786447] (AR v1)
Трек 5 : извлечено точно (доверие 2) [93E116C9] (AR v1)
Трек 6 : извлечено точно (доверие 2) [23236A7E] (AR v1)
Трек 7 : извлечено точно (доверие 2) [F25D6801] (AR v1)
Трек 8 : извлечено точно (доверие 2) [00F2A732] (AR v1)
Трек 9 : извлечено точно (доверие 2) [1E9CD736] (AR v1)
Трек 10 : извлечено точно (доверие 2) [AEB5DF2F] (AR v1)
Трек 11 : извлечено точно (доверие 2) [5384183B] (AR v1)
Трек 12 : извлечено точно (доверие 2) [C6FCAA4B] (AR v1)
Трек 13 : извлечено точно (доверие 2) [364DFBB5] (AR v1)
Трек 14 : извлечено точно (доверие 2) [2F9DF756] (AR v1)

Все треки извлечены точно

Конец отчёта

==== Контрольная сумма отчёта 37BFF536471B0969C2354A33CEDF23B3BB705274D956714E5B0073C1DFC2B5A8 ====

[CUETools log; Date: 02.06.2019 1:53:56; Version: 2.1.4]
Pregap length 00:00:32.
[CTDB TOCID: 1RlWzmD1x39BlsafY6ceQVKXIEA-] found.
Track | CTDB Status
1 | (21/21) Accurately ripped
2 | (21/21) Accurately ripped
3 | (21/21) Accurately ripped
4 | (21/21) Accurately ripped
5 | (21/21) Accurately ripped
6 | (21/21) Accurately ripped
7 | (21/21) Accurately ripped
8 | (21/21) Accurately ripped
9 | (21/21) Accurately ripped
10 | (21/21) Accurately ripped
11 | (21/21) Accurately ripped
12 | (21/21) Accurately ripped
13 | (21/21) Accurately ripped
14 | (21/21) Accurately ripped
[AccurateRip ID: 001e1c29-0143db7a-d00e3b0e] found.
Track [ CRC | V2 ] Status
01 [5d4956b5|d3ac8610] (02+04/21) Accurately ripped
02 [f70bf579|57c8ca6f] (02+04/21) Accurately ripped
03 [4b4819d3|e2025771] (02+04/21) Accurately ripped
04 [0d786447|0995f8d5] (02+04/21) Accurately ripped
05 [93e116c9|72364908] (02+04/21) Accurately ripped
06 [23236a7e|fbeefb11] (02+04/21) Accurately ripped
07 [f25d6801|66bfade6] (02+04/21) Accurately ripped
08 [00f2a732|746ae3a0] (02+04/21) Accurately ripped
09 [1e9cd736|0286ce06] (02+04/21) Accurately ripped
10 [aeb5df2f|3b9e44b2] (02+04/21) Accurately ripped
11 [5384183b|afea2529] (02+04/19) Accurately ripped
12 [c6fcaa4b|625c7572] (02+04/19) Accurately ripped
13 [364dfbb5|9b0c4508] (02+04/19) Accurately ripped
14 [2f9df756|b9b9d3f4] (02+04/21) Accurately ripped
Offsetted by 681:
01 [0be0224e] (02/21) Accurately ripped
02 [49b93cf4] (02/21) Accurately ripped
03 [ac82ea63] (02/21) Accurately ripped
04 [8e808834] (02/21) Accurately ripped
05 [2456cd05] (02/21) Accurately ripped
06 [33d5c394] (02/21) Accurately ripped
07 [42db4cba] (02/21) Accurately ripped
08 [69f7abfa] (02/21) Accurately ripped
09 [c5c94cfe] (02/21) Accurately ripped
10 [a17dc32d] (02/21) Accurately ripped
11 [f6f642e2] (00/19) No match (V2 was not tested)
12 [999a63ab] (00/19) No match (V2 was not tested)
13 [d8ebdea1] (00/19) No match (V2 was not tested)
14 [6e63b946] (02/21) Accurately ripped

Track Peak [ CRC32 ] [W/O NULL] [ LOG ]
– 90,8 [9FFD3136] [90E52848] CRC32
01 73,6 [F2133D33] [A3183691]
02 75,9 [88CAE8D4] [3350C299]
03 85,0 [8B07F623] [1A48C64A]
04 81,3 [7428E5AB] [85D4F46C]
05 85,9 [F760A5C8] [5E447724]
06 90,8 [E7285E76] [12F8931D]
07 27,8 [B2491A62] [33C9BA6A]
08 84,0 [FEE702A4] [170D51E1]
09 35,1 [9B85CC15] [60EBD889]
10 72,7 [C17B4634] [3007ADA4]
11 58,3 [64A16EE9] [4728A124]
12 45,7 [21141702] [3E341A89]
13 77,6 [40E9B6F5] [124BD352]
14 72,4 [9D8BADEC] [BD23B3A0]

Thanks to 40years

See also: