Tags
Language
Tags

Li-Wei Qin, Michael Halász, Czech Chamber Philharmonic Orchestra Pardubice - Russian Cello Concertos (2019)

Posted By: ArlegZ
Li-Wei Qin, Michael Halász, Czech Chamber Philharmonic Orchestra Pardubice - Russian Cello Concertos (2019)

Li-Wei Qin, Michael Halász, Czech Chamber Philharmonic Orchestra Pardubice - Russian Cello Concertos: Tchaikovsky, Rimsky-Korsakov, Glazunov (2019)
EAC | FLAC | Image (Cue & Log) ~ 299 Mb | Total time: 70:04 | Scans included
Classical | Label: Naxos | 8.573860 | Recorded: 2017

Russian composers have made a significant contribution to the repertoire of music for cello and orchestra. Tchaikovsky’s Variations on a Rococo Theme, deftly scored for an 18th-century orchestra, reveals his admiration for Mozart whereas the Pezzo capriccioso is full of ripe charm. in the year of Tchaikovsky’s death, Rimsky-Korsakov composed the attractive Serenade, Op. 37 and his student, Glazunov, both absorbed and continued the great Romantic lineage with his own sonorous and beautiful Concerto ballata, the poignant Chant du ménestrel, and the iberian evocations of the Sérénade espagnole from Deux Morceaux.

Performer:
Li-Wei Qin, cello
Czech Chamber Philharmonic Orchestra Pardubice
Michael Halász, conductor

Track List:
Pyotr Il’yich Tchaikovsky
Variations on a Rococo Theme in A Major, Op. 33
01. Moderato quasi andante - Tema: Moderato semplice
02. Variation 1: Tempo della tema
03. Variation 2: Tempo della tema
04. Variation 3: Andante sostenuto
05. Variation 4: Andante grazioso
06. Variation 5: Allegro moderato
07. Variation 6: Andante
08. Variation 7 e Coda: Allegro vivo
Nikolay Andreyevich Rimsky-Korsakov
09. Serenade, Op. 37
Alexander Konstantinovich Glazunov
10. Concerto ballata in C major, Op. 108
Deux Morceaux, Op. 20
11. No. 1. Mélodie
12. No. 2. Sérénade espagnole
13. Chant du ménestrel in F sharp minor, Op. 71
Pyotr Il’yich Tchaikovsky
14. Pezzo capriccioso in B minor, Op. 62
15. String Quartet No. 1 in D major, Op. 11: II. Andante cantabile


Exact Audio Copy V1.3 from 2. September 2016

EAC extraction logfile from 16. October 2019, 1:19

Li-Wei Qin, Czech Chamber Philharmonic Orchestra Pardubice, Michael Halász / Russian Cello Concertos

Used drive : ASUS SDRW-08U7M-U Adapter: 1 ID: 0

Read mode : Secure
Utilize accurate stream : Yes
Defeat audio cache : Yes
Make use of C2 pointers : No

Read offset correction : 6
Overread into Lead-In and Lead-Out : No
Fill up missing offset samples with silence : Yes
Delete leading and trailing silent blocks : No
Null samples used in CRC calculations : Yes
Used interface : Native Win32 interface for Win NT & 2000

Used output format : User Defined Encoder
Selected bitrate : 128 kBit/s
Quality : High
Add ID3 tag : No
Command line compressor : C:\Program Files (x86)\Exact Audio Copy\Flac\flac.exe
Additional command line options : -V -8 -T "Date=%year%" -T "Genre=%genre%" %source%


TOC of the extracted CD

Track | Start | Length | Start sector | End sector
––––––––––––––––––––––––––––-
1 | 0:00.00 | 2:29.09 | 0 | 11183
2 | 2:29.09 | 0:52.59 | 11184 | 15142
3 | 3:21.68 | 1:15.18 | 15143 | 20785
4 | 4:37.11 | 3:33.07 | 20786 | 36767
5 | 8:10.18 | 1:54.23 | 36768 | 45340
6 | 10:04.41 | 3:46.23 | 45341 | 62313
7 | 13:50.64 | 2:32.67 | 62314 | 73780
8 | 16:23.56 | 2:09.37 | 73781 | 83492
9 | 18:33.18 | 3:57.60 | 83493 | 101327
10 | 22:31.03 | 20:31.52 | 101328 | 193704
11 | 43:02.55 | 6:38.46 | 193705 | 223600
12 | 49:41.26 | 2:52.42 | 223601 | 236542
13 | 52:33.68 | 3:52.32 | 236543 | 253974
14 | 56:26.25 | 6:47.63 | 253975 | 284562
15 | 63:14.13 | 6:47.62 | 284563 | 315149


Range status and errors

Selected range

Filename C:\temp\Naxos_8.573860 - Russian Cello Concertos - Li-Wei Qin - 2019\Russian Cello Concertos.wav

Peak level 99.0 %
Extraction speed 5.0 X
Range quality 100.0 %
Test CRC 636E7D90
Copy CRC 636E7D90
Copy OK

No errors occurred


AccurateRip summary

Track 1 not present in database
Track 2 not present in database
Track 3 not present in database
Track 4 not present in database
Track 5 not present in database
Track 6 not present in database
Track 7 not present in database
Track 8 not present in database
Track 9 not present in database
Track 10 not present in database
Track 11 not present in database
Track 12 not present in database
Track 13 not present in database
Track 14 not present in database
Track 15 not present in database

None of the tracks are present in the AccurateRip database

End of status report

==== Log checksum 179C6344F258B96E1B5415508EB8D4B535D7FD28E0D8D9A7A2E6690CACACA885 ====

Li-Wei Qin, Michael Halász, Czech Chamber Philharmonic Orchestra Pardubice - Russian Cello Concertos (2019)

Thanks to the original releaser