Subcategories

Linda Kvam - Anything For Love (2010) {BareBra Musikk}

Posted By: TestTickles
Linda Kvam - Anything For Love (2010) {BareBra Musikk}

Linda Kvam - Anything For Love (2010) {BareBra Musikk}
EAC Rip | FLAC with CUE and LOG | scans | 326 mb
MP3 CBR 320 kbps | RAR | 101 mb
Genre: country

Anything For Love is the 2010 album by Norwegian country singer Linda Kvam. This was released by BareBra Musikk.

01. Hard To Handle (4:36)
02. Maybe (2:58)
03. Anything For Love (3:29)
04. Faith In You (4:51)
05. Revolution Baby (4:52)
06. Prove You Right (4:01)
07. Bored Beyond Belief (3:39)
08. William's Song (4:14)
09. I Remember Jane (3:28)
10. Hurry Up (4:26)
11. Leave Me (5:28)

X Lossless Decoder version 20101010 (123.3)

XLD extraction logfile from 2011-02-28 11:54:28 +0100

Linda Kvam / Anything For Love

Used drive : HL-DT-ST DVDRW GS21N (revision SA18)

Use cdparanoia mode : YES (CDParanoia III 10.2 engine)
Disable audio cache : OK for the drive with cache less than 2750KB
Make use of C2 pointers : NO
Read offset correction : 667
Max retry count : 100
Gap status : Analyzed, Appended

TOC of the extracted CD
Track | Start | Length | Start sector | End sector
––––––––––––––––––––––––––––-
1 | 00:00:00 | 04:36:28 | 0 | 20727
2 | 04:36:28 | 02:57:68 | 20728 | 34070
3 | 07:34:21 | 03:29:16 | 34071 | 49761
4 | 11:03:37 | 04:51:22 | 49762 | 71608
5 | 15:54:59 | 04:51:44 | 71609 | 93477
6 | 20:46:28 | 04:00:64 | 93478 | 111541
7 | 24:47:17 | 03:39:14 | 111542 | 127980
8 | 28:26:31 | 04:13:57 | 127981 | 147012
9 | 32:40:13 | 03:28:29 | 147013 | 162641
10 | 36:08:42 | 04:26:08 | 162642 | 182599
11 | 40:34:50 | 05:28:20 | 182600 | 207219

All Tracks
Album gain : -8.51 dB
Peak : 0.966095

Track 01
Filename : /cuntfist/FLAC/Linda Kvam - Anything For Love (2010) [FLAC] {BareBra Musikk}/01 - Hard To Handle.flac
Pre-gap length : 00:02:00

Track gain : -8.36 dB
Peak : 0.966095
CRC32 hash (test run) : 47B6BAA5
CRC32 hash : 47B6BAA5
CRC32 hash (skip zero) : 8B2CDB56
AccurateRip signature : 2DB17C82
->Track not present in AccurateRip database.
Statistics
Read error : 0
Skipped (treated as error) : 0
Edge jitter error (maybe fixed) : 0
Atom jitter error (maybe fixed) : 0
Drift error (maybe fixed) : 0
Dropped bytes error (maybe fixed) : 0
Duplicated bytes error (maybe fixed) : 0
Inconsistency in error sectors : 0

Track 02
Filename : /cuntfist/FLAC/Linda Kvam - Anything For Love (2010) [FLAC] {BareBra Musikk}/02 - Maybe.flac

Track gain : -8.76 dB
Peak : 0.966095
CRC32 hash (test run) : E2CF639F
CRC32 hash : E2CF639F
CRC32 hash (skip zero) : E757C7B2
AccurateRip signature : C1072774
->Track not present in AccurateRip database.
Statistics
Read error : 0
Skipped (treated as error) : 0
Edge jitter error (maybe fixed) : 0
Atom jitter error (maybe fixed) : 0
Drift error (maybe fixed) : 0
Dropped bytes error (maybe fixed) : 0
Duplicated bytes error (maybe fixed) : 0
Inconsistency in error sectors : 0

Track 03
Filename : /cuntfist/FLAC/Linda Kvam - Anything For Love (2010) [FLAC] {BareBra Musikk}/03 - Anything For Love.flac

Track gain : -9.34 dB
Peak : 0.966095
CRC32 hash (test run) : 2FC9B257
CRC32 hash : 2FC9B257
CRC32 hash (skip zero) : D856969D
AccurateRip signature : 4930EB2E
->Track not present in AccurateRip database.
Statistics
Read error : 0
Skipped (treated as error) : 0
Edge jitter error (maybe fixed) : 0
Atom jitter error (maybe fixed) : 0
Drift error (maybe fixed) : 0
Dropped bytes error (maybe fixed) : 0
Duplicated bytes error (maybe fixed) : 0
Inconsistency in error sectors : 0

Track 04
Filename : /cuntfist/FLAC/Linda Kvam - Anything For Love (2010) [FLAC] {BareBra Musikk}/04 - Faith In You.flac
Pre-gap length : 00:01:01

Track gain : -8.49 dB
Peak : 0.966095
CRC32 hash (test run) : 72631975
CRC32 hash : 72631975
CRC32 hash (skip zero) : EB497349
AccurateRip signature : C583BF6A
->Track not present in AccurateRip database.
Statistics
Read error : 0
Skipped (treated as error) : 0
Edge jitter error (maybe fixed) : 0
Atom jitter error (maybe fixed) : 0
Drift error (maybe fixed) : 0
Dropped bytes error (maybe fixed) : 0
Duplicated bytes error (maybe fixed) : 0
Inconsistency in error sectors : 0

Track 05
Filename : /cuntfist/FLAC/Linda Kvam - Anything For Love (2010) [FLAC] {BareBra Musikk}/05 - Revolution Baby.flac
Pre-gap length : 00:00:68

Track gain : -8.58 dB
Peak : 0.966095
CRC32 hash (test run) : DAC2B8C0
CRC32 hash : DAC2B8C0
CRC32 hash (skip zero) : E7266792
AccurateRip signature : 972D98E5
->Track not present in AccurateRip database.
Statistics
Read error : 0
Skipped (treated as error) : 0
Edge jitter error (maybe fixed) : 0
Atom jitter error (maybe fixed) : 0
Drift error (maybe fixed) : 0
Dropped bytes error (maybe fixed) : 0
Duplicated bytes error (maybe fixed) : 0
Inconsistency in error sectors : 0

Track 06
Filename : /cuntfist/FLAC/Linda Kvam - Anything For Love (2010) [FLAC] {BareBra Musikk}/06 - Prove You Right.flac

Track gain : -7.69 dB
Peak : 0.966095
CRC32 hash (test run) : 7AF0C6BD
CRC32 hash : 7AF0C6BD
CRC32 hash (skip zero) : 15BE16B2
AccurateRip signature : 6995CD1E
->Track not present in AccurateRip database.
Statistics
Read error : 0
Skipped (treated as error) : 0
Edge jitter error (maybe fixed) : 0
Atom jitter error (maybe fixed) : 0
Drift error (maybe fixed) : 0
Dropped bytes error (maybe fixed) : 0
Duplicated bytes error (maybe fixed) : 0
Inconsistency in error sectors : 0

Track 07
Filename : /cuntfist/FLAC/Linda Kvam - Anything For Love (2010) [FLAC] {BareBra Musikk}/07 - Bored Beyond Belief.flac

Track gain : -8.10 dB
Peak : 0.966095
CRC32 hash (test run) : BD5BDA50
CRC32 hash : BD5BDA50
CRC32 hash (skip zero) : 8EEF88EC
AccurateRip signature : 6571A9CB
->Track not present in AccurateRip database.
Statistics
Read error : 0
Skipped (treated as error) : 0
Edge jitter error (maybe fixed) : 0
Atom jitter error (maybe fixed) : 0
Drift error (maybe fixed) : 0
Dropped bytes error (maybe fixed) : 0
Duplicated bytes error (maybe fixed) : 0
Inconsistency in error sectors : 0

Track 08
Filename : /cuntfist/FLAC/Linda Kvam - Anything For Love (2010) [FLAC] {BareBra Musikk}/08 - William's Song.flac
Pre-gap length : 00:02:24

Track gain : -7.47 dB
Peak : 0.966095
CRC32 hash (test run) : B04C6FB6
CRC32 hash : B04C6FB6
CRC32 hash (skip zero) : 4759BAF8
AccurateRip signature : A2C3730A
->Track not present in AccurateRip database.
Statistics
Read error : 0
Skipped (treated as error) : 0
Edge jitter error (maybe fixed) : 1
Atom jitter error (maybe fixed) : 1
Drift error (maybe fixed) : 0
Dropped bytes error (maybe fixed) : 0
Duplicated bytes error (maybe fixed) : 0
Inconsistency in error sectors : 0

Track 09
Filename : /cuntfist/FLAC/Linda Kvam - Anything For Love (2010) [FLAC] {BareBra Musikk}/09 - I Remember Jane.flac
Pre-gap length : 00:01:55

Track gain : -8.34 dB
Peak : 0.966095
CRC32 hash (test run) : B0E7B0AE
CRC32 hash : B0E7B0AE
CRC32 hash (skip zero) : 02AC02EB
AccurateRip signature : E8080106
->Track not present in AccurateRip database.
Statistics
Read error : 0
Skipped (treated as error) : 0
Edge jitter error (maybe fixed) : 0
Atom jitter error (maybe fixed) : 0
Drift error (maybe fixed) : 0
Dropped bytes error (maybe fixed) : 0
Duplicated bytes error (maybe fixed) : 0
Inconsistency in error sectors : 0

Track 10
Filename : /cuntfist/FLAC/Linda Kvam - Anything For Love (2010) [FLAC] {BareBra Musikk}/10 - Hurry Up.flac

Track gain : -9.02 dB
Peak : 0.966095
CRC32 hash (test run) : 126B3350
CRC32 hash : 126B3350
CRC32 hash (skip zero) : 50C2F461
AccurateRip signature : A897A96A
->Track not present in AccurateRip database.
Statistics
Read error : 0
Skipped (treated as error) : 0
Edge jitter error (maybe fixed) : 0
Atom jitter error (maybe fixed) : 0
Drift error (maybe fixed) : 0
Dropped bytes error (maybe fixed) : 0
Duplicated bytes error (maybe fixed) : 0
Inconsistency in error sectors : 0

Track 11
Filename : /cuntfist/FLAC/Linda Kvam - Anything For Love (2010) [FLAC] {BareBra Musikk}/11 - Leave Me.flac
Pre-gap length : 00:01:34

Track gain : -8.28 dB
Peak : 0.966095
CRC32 hash (test run) : ACBA0433
CRC32 hash : ACBA0433
CRC32 hash (skip zero) : 0EAC8EFC
AccurateRip signature : 16D7F9FB
->Track not present in AccurateRip database.
Statistics
Read error : 0
Skipped (treated as error) : 0
Edge jitter error (maybe fixed) : 0
Atom jitter error (maybe fixed) : 0
Drift error (maybe fixed) : 0
Dropped bytes error (maybe fixed) : 0
Duplicated bytes error (maybe fixed) : 0
Inconsistency in error sectors : 0

No errors occurred

End of status report
.

Linda Kvam - Anything For Love (2010) {BareBra Musikk}


Thank you to the original uploader.