Subcategories

Erin Harpe & The Delta Swingers - Lonely Leavin' Town (2017)

Posted By: SERTiL
Erin Harpe & The Delta Swingers - Lonely Leavin' Town (2017)

Erin Harpe & The Delta Swingers - Lonely Leavin' Town
EAC Rip | FLAC (tracks)+cue, log, m3u, front cover | 47:22 min | 300 MB
Label: Vizztone Label Group – VTJJ02 | Tracks: 10 | Rls.date: 2017
Electric Blues, Blues Country

Erin Harpe & the Delta Swingers, her Boston Music Award-winning band, are releasing their second full-length album, BIG ROAD. The self-produced album highlights Erin’s diverse influences, from her roots in acoustic delta and piedmont blues, to her electric side – slide guitar, boogie blues, funk and soul.

Since the release of their acclaimed debut LOVE WHIP BLUES (VizzTone/Juicy Juju 2014), Erin and the band have been touring the country non-stop – honing their craft, and making plenty of new fans. Erin has emerged into the limelight, taking on a more direct role as producer and playing lead guitar. BIG ROAD is an apt name for her new, self-produced album. It describes where she and the band have been, traveling the highways and back roads, bringing people joy through their music.

BIG ROAD features ten songs – including four originals, and Erin’s own arrangements of songs by Mississippi Fred McDowell, Tommy Johnson, Mississippi John Hurt, Slim Harpo, and Randy Newman. “It’s the album I’ve always wanted to make” explains Erin, “an authentic live-sounding set of songs, centered around my guitar playing, which is at the root of my music – from acoustic finger-picking, to electric slide guitar, to wah-wah fueled funk, with a few guitar solos thrown in. I also wanted to highlight our band sound by playing live in a room together, with just a handful of overdubs. We went into the studio after a 3-week tour based around the International Blues Challenge in Memphis (where we made it to the semi-finals), so we were very tight.”

“One of the most dynamic, talented and exciting roots rocking blues women on the scene”
– Living Blues Magazine

TRACKLIST
1. Kakomo Me Baby (5:34)
2. Lonely Leavin' Town (5:51)
3. Big Road Blues (4:09)
4. Frankie (3:39)
5. Shake Your Hips (8:20)
6. Casey Jones (3:56)
7. Voodoo Blues (3:35)
8. Stop & Listen (2:59)
9. Guilty (2:21)
10. Gimme That (Somethin' Special) (6:35)

Exact Audio Copy V1.3 from 2. September 2016

EAC extraction logfile from 18. October 2017, 16:10

Erin Harpe And The Delta Swingers / Big Road

Used drive : TSSTcorpCD/DVDW SH-S182M Adapter: 1 ID: 0

Read mode : Secure
Utilize accurate stream : Yes
Defeat audio cache : Yes
Make use of C2 pointers : No

Read offset correction : 6
Overread into Lead-In and Lead-Out : No
Fill up missing offset samples with silence : Yes
Delete leading and trailing silent blocks : No
Null samples used in CRC calculations : Yes
Used interface : Native Win32 interface for Win NT & 2000
Gap handling : Appended to previous track

Used output format : User Defined Encoder
Selected bitrate : 1024 kBit/s
Quality : High
Add ID3 tag : No
Command line compressor : C:\Program Files\Exact Audio Copy\FLAC\FLAC.EXE
Additional command line options : -6 -V -T "ARTIST=%artist%" -T "TITLE=%title%" -T "ALBUM=%albumtitle%" -T "DATE=%year%" -T "TRACKNUMBER=%tracknr%" -T "GENRE=%genre%" -T "COMMENT=%comment%" -T "BAND=%albuminterpret%" -T "ALBUMARTIST=%albuminterpret%" -T "COMPOSER=%composer%" %haslyrics%–tag-from-file=LYRICS="%lyricsfile%"%haslyrics% -T "DISCNUMBER=%cdnumber%" -T "TOTALDISCS=%totalcds%" -T "TOTALTRACKS=%numtracks%" %hascover%–picture="%coverfile%"%hascover% %source% -o %dest%


TOC of the extracted CD

Track | Start | Length | Start sector | End sector
––––––––––––––––––––––––––––-
1 | 0:00.00 | 5:34.41 | 0 | 25090
2 | 5:34.41 | 5:54.54 | 25091 | 51694
3 | 11:29.20 | 4:12.39 | 51695 | 70633
4 | 15:41.59 | 3:42.02 | 70634 | 87285
5 | 19:23.61 | 8:22.44 | 87286 | 124979
6 | 27:46.30 | 3:58.65 | 124980 | 142894
7 | 31:45.20 | 3:37.37 | 142895 | 159206
8 | 35:22.57 | 3:02.31 | 159207 | 172887
9 | 38:25.13 | 2:24.01 | 172888 | 183688
10 | 40:49.14 | 6:37.01 | 183689 | 213464


Track 1

Filename E:\Nueva carpeta (2)\01 Kokomo.wav

Pre-gap length 0:00:02.00

Peak level 94.6 %
Extraction speed 2.4 X
Track quality 100.0 %
Test CRC 538E446F
Copy CRC 538E446F
Track not present in AccurateRip database
Copy OK

Track 2

Filename E:\Nueva carpeta (2)\02 Lonely Leavin Town.wav

Peak level 94.6 %
Extraction speed 2.6 X
Track quality 100.0 %
Test CRC 09215B6B
Copy CRC 09215B6B
Track not present in AccurateRip database
Copy OK

Track 3

Filename E:\Nueva carpeta (2)\03 Frankie.wav

Peak level 94.1 %
Extraction speed 2.6 X
Track quality 100.0 %
Test CRC 59F36467
Copy CRC 59F36467
Track not present in AccurateRip database
Copy OK

Track 4

Filename E:\Nueva carpeta (2)\04 Big Road.wav

Peak level 96.1 %
Extraction speed 2.6 X
Track quality 100.0 %
Test CRC 498474BF
Copy CRC 498474BF
Track not present in AccurateRip database
Copy OK

Track 5

Filename E:\Nueva carpeta (2)\05 Shake Your Hips.wav

Peak level 95.4 %
Extraction speed 2.9 X
Track quality 100.0 %
Test CRC C77E00D4
Copy CRC C77E00D4
Track not present in AccurateRip database
Copy OK

Track 6

Filename E:\Nueva carpeta (2)\06 Casey Jones.wav

Peak level 94.4 %
Extraction speed 2.8 X
Track quality 100.0 %
Test CRC 32468E9E
Copy CRC 32468E9E
Track not present in AccurateRip database
Copy OK

Track 7

Filename E:\Nueva carpeta (2)\07 Voodoo Blues.wav

Peak level 94.1 %
Extraction speed 2.9 X
Track quality 100.0 %
Test CRC F4769072
Copy CRC F4769072
Track not present in AccurateRip database
Copy OK

Track 8

Filename E:\Nueva carpeta (2)\08 Stop And Listen.wav

Peak level 94.0 %
Extraction speed 2.8 X
Track quality 100.0 %
Test CRC D20570D0
Copy CRC D20570D0
Track not present in AccurateRip database
Copy OK

Track 9

Filename E:\Nueva carpeta (2)\09 Guilty.wav

Peak level 99.3 %
Extraction speed 2.8 X
Track quality 100.0 %
Test CRC 05BDF6E3
Copy CRC 05BDF6E3
Track not present in AccurateRip database
Copy OK

Track 10

Filename E:\Nueva carpeta (2)\10 Gimme That Somethin Special.wav

Peak level 100.0 %
Extraction speed 3.1 X
Track quality 100.0 %
Test CRC ECC84724
Copy CRC ECC84724
Track not present in AccurateRip database
Copy OK


None of the tracks are present in the AccurateRip database

No errors occurred

End of status report

–– CUETools DB Plugin V2.1.6

[CTDB TOCID: kjtuSDTsetSWpUZSyD_MbAZIeJU-] disk not present in database
Submit result: kjtuSDTsetSWpUZSyD_MbAZIeJU- has been uploaded


==== Log checksum 4076B296B3EC4B364A05A75741B7D4A6D1173CAC550B1C12E6F2169712695148 ====


Thanks to the Original customer.