Tags
Language
Tags

Lucas Oswald - Whet (2017)

Posted By: Pisulik
Lucas Oswald - Whet (2017)

Lucas Oswald - Whet (2017)
EAC Rip | FLAC (Tracks) +cue, log - 226 MB | MP3 CBR 320 kbps - 85 MB | 00:37:16
Alternative Rock | Label: Cosmic Dreamer Music

After getting in his time as a performing & touring musician with bands like The Appleseed Cast and Shearwater, Lucas embarked on a long and cathartic songwriting and recording process that would result in his sophomore full length, Whet. Lucas Oswald Pulls influence from all over the map to craft his dense and colorful sophomore album. The songs were written over several tours abroad and recorded near Oswald’s hometown in rural Missouri, as well as San Antonio and Austin.

Whet also means to sharpen a tool, which to Lucas was a great metaphor for growth. "It took a lot of growth to make this album, and for me, as an artist, to sorta become the person I am." The homophone "wet" means almost the opposite of the "sharpened tool" definition of whet and the album (sonically) is just that: juxtapositions between sharp, punchy, abrasive sounds, and washy/reverby textures. It sounds as much like a singer songwriter record as it does like a reverb-laden Britpop record from the 90’s. Where Lucas’ creative journey ends, the journey of Whet begins.

TRACKLIST

01. I Believe in Trying
02. Dark on Us
03. A Long, Long Year
04. Open Me Up
05. Colors That I Like
06. Starving
07. Feel It Again
08. Passenger

Exact Audio Copy V1.3 from 2. September 2016

EAC extraction logfile from 3. January 2018, 17:09

Lucas Oswald / Whet

Used drive : PLDS DVD-RW DA8AESH Adapter: 1 ID: 0

Read mode : Secure
Utilize accurate stream : Yes
Defeat audio cache : Yes
Make use of C2 pointers : No

Read offset correction : 6
Overread into Lead-In and Lead-Out : No
Fill up missing offset samples with silence : Yes
Delete leading and trailing silent blocks : No
Null samples used in CRC calculations : Yes
Used interface : Native Win32 interface for Win NT & 2000
Gap handling : Appended to previous track

Used output format : User Defined Encoder
Selected bitrate : 1024 kBit/s
Quality : High
Add ID3 tag : No
Command line compressor : C:\Program Files (x86)\Exact Audio Copy\Flac\flac.exe
Additional command line options : -8 -e -p -V -T "ARTIST=%artist%" -T "TITLE=%title%" -T "ALBUM=%albumtitle%" -T "DATE=%year%" -T "TRACKNUMBER=%tracknr%" -T "GENRE=%genre%" -T "PERFORMER=%albuminterpret%" -T "COMPOSER=%composer%" %haslyrics%–tag-from-file=LYRICS="%lyricsfile%"%haslyrics% -T "ALBUMARTIST=%albumartist%" -T "DISCNUMBER=%cdnumber%" -T "TOTALDISCS=%totalcds%" -T "TOTALTRACKS=%numtracks%" -T "COMMENT=%comment%" %source% -o %dest%


TOC of the extracted CD

Track | Start | Length | Start sector | End sector
––––––––––––––––––––––––––––-
1 | 0:00.00 | 4:59.22 | 0 | 22446
2 | 4:59.22 | 4:13.54 | 22447 | 41475
3 | 9:13.01 | 3:44.58 | 41476 | 58333
4 | 12:57.59 | 6:11.09 | 58334 | 86167
5 | 19:08.68 | 4:00.56 | 86168 | 104223
6 | 23:09.49 | 5:10.08 | 104224 | 127481
7 | 28:19.57 | 5:23.04 | 127482 | 151710
8 | 33:42.61 | 3:32.58 | 151711 | 167668


Track 1

Filename C:\EAC Rips\[2017] Lucas Oswald - Whet (FLAC)\01 I Believe In Trying.wav

Pre-gap length 0:00:02.00

Peak level 97.7 %
Extraction speed 1.1 X
Track quality 100.0 %
Test CRC DEDE9F8E
Copy CRC DEDE9F8E
Track not present in AccurateRip database
Copy OK

Track 2

Filename C:\EAC Rips\[2017] Lucas Oswald - Whet (FLAC)\02 Dark On Us.wav

Pre-gap length 0:00:00.37

Peak level 97.7 %
Extraction speed 1.3 X
Track quality 100.0 %
Test CRC 2AED039E
Copy CRC 2AED039E
Track not present in AccurateRip database
Copy OK

Track 3

Filename C:\EAC Rips\[2017] Lucas Oswald - Whet (FLAC)\03 A Long, Long Year.wav

Pre-gap length 0:00:01.38

Peak level 97.7 %
Extraction speed 1.2 X
Track quality 99.9 %
Test CRC B55A1204
Copy CRC B55A1204
Track not present in AccurateRip database
Copy OK

Track 4

Filename C:\EAC Rips\[2017] Lucas Oswald - Whet (FLAC)\04 Open Me Up.wav

Pre-gap length 0:00:01.73

Peak level 98.8 %
Extraction speed 1.6 X
Track quality 100.0 %
Test CRC 37E53A30
Copy CRC 37E53A30
Track not present in AccurateRip database
Copy OK

Track 5

Filename C:\EAC Rips\[2017] Lucas Oswald - Whet (FLAC)\05 Colors That I Like.wav

Pre-gap length 0:00:01.48

Peak level 97.7 %
Extraction speed 1.6 X
Track quality 100.0 %
Test CRC 27F184B0
Copy CRC 27F184B0
Track not present in AccurateRip database
Copy OK

Track 6

Filename C:\EAC Rips\[2017] Lucas Oswald - Whet (FLAC)\06 Starving.wav

Pre-gap length 0:00:00.46

Peak level 97.7 %
Extraction speed 1.6 X
Track quality 99.9 %
Test CRC 2FB7E8FB
Copy CRC 2FB7E8FB
Track not present in AccurateRip database
Copy OK

Track 7

Filename C:\EAC Rips\[2017] Lucas Oswald - Whet (FLAC)\07 Feel It Again.wav

Pre-gap length 0:00:02.13

Peak level 97.7 %
Extraction speed 1.7 X
Track quality 99.9 %
Test CRC 90C9E2AD
Copy CRC 90C9E2AD
Track not present in AccurateRip database
Copy OK

Track 8

Filename C:\EAC Rips\[2017] Lucas Oswald - Whet (FLAC)\08 Passenger.wav

Pre-gap length 0:00:03.93

Peak level 97.7 %
Extraction speed 1.8 X
Track quality 100.0 %
Test CRC 50D3DBA0
Copy CRC 50D3DBA0
Track not present in AccurateRip database
Copy OK


None of the tracks are present in the AccurateRip database

No errors occurred

End of status report

–– CUETools DB Plugin V2.1.6

[CTDB TOCID: La1iFN1Itz9Ym2qEDloeRTT85Ao-] found
Submit result: La1iFN1Itz9Ym2qEDloeRTT85Ao- has been confirmed
Track | CTDB Status
1 | (2/2) Accurately ripped
2 | (2/2) Accurately ripped
3 | (2/2) Accurately ripped
4 | (2/2) Accurately ripped
5 | (2/2) Accurately ripped
6 | (2/2) Accurately ripped
7 | (2/2) Accurately ripped
8 | (2/2) Accurately ripped


==== Log checksum 0096FDFF24FFD67B85D712609A1B61AB7E24C8B5EE2FD83CC70B40415FB024A8 ====


All thanks go to the original releaser