Tags
Language
Tags
June 2024
Su Mo Tu We Th Fr Sa
26 27 28 29 30 31 1
2 3 4 5 6 7 8
9 10 11 12 13 14 15
16 17 18 19 20 21 22
23 24 25 26 27 28 29
30 1 2 3 4 5 6

Luciano Pavarotti - The Complete Operas (101CD Box Set) (2017) Part 1

Posted By: Discograf_man
Luciano Pavarotti - The Complete Operas (101CD Box Set) (2017) Part 1

Luciano Pavarotti - The Complete Operas (101CD Box Set) (2017) Part 1
EAC Rip | APE (*image+.cue+.log,scans) | Run Time: 17:26:44 | 4,65 Gb
Genre: Classical | Label: Decca

2017 is the tenth anniversary of the passing of the 20th Century’s most famous tenor – Decca marks this occasion to marvel once again at the sheer quality of the voice of ‘The People’s Tenor’ with a 101-disc collection presenting every role he ever recorded and performed. Every role since his debut recording of La Boh?me in 1961 is included, allowing critics, collectors and opera lovers once more to appreciate his truly exceptional gifts. Every single opera is presented in the best possible audio quality, remastered at Abbey Road under the supervision of former Decca engineers.

95 CDs + 6 Blu-ray Audio discs in original jackets
Presenting EVERY role ever performed, brought together for the first time
Complete opera recordings from Decca, DG and Philips
Includes two opera recordings from EMI/Warner Classics: L’amico Fritz and Don Carlo
34 complete operas PLUS a number of operas he recorded more than once
Also included are the stellar recordings of Verdi’s Requiem and Rossini’s Stabat Mater
Recordings remastered at Abbey Road and presented in the best possible quality. 21 analogue recordings now in definitive 24-bit transfers
Includes his debut performance of La Boh?me, Modena, 1961
PLUS Six iconic performances in true 24-bit (Blu-ray Audio)
Hardback book with new essay by James Jolly, numerous photographs from his career, press clippings and reminiscences from collaborators such as Zubin Mehta and Mirella Freni
Luciano Pavarotti - The Complete Operas (101CD Box Set) (2017) Part 1

Contents:

CD 1 & 2 - Bellini: Beatrice di Tenda
Dame Joan Sutherland, Josephine Veasey, Luciano Pavarotti,
London Symphony Orchestra, Richard Bonynge

CD 3 & 4 - Donizetti: La Fille du Regiment
Dame Joan Sutherland Monica Sinclair; Jules Bruyere, Luciano Pavarotti,
Chorus & Orchestra of the Royal Opera House, Covent Garden, Richard Bonynge

CD 5 - Verdi: Messa da Requiem
Dame Joan Sutherland, Marilyn Horne, Martti Talvela, Luciano Pavarotti,
Wiener Staatsopernchor; Wiener Philharmoniker, Sir Georg Solti

CD 6 & 7 - Mascagni: L'Amico Fritz
Mirella Freni, Laura Didier, Luciano Pavarotti,
Chorus & Orchetra of the Royal Opera House, Covent Garden, Gianandrea Gavazzeni

CD 9 & 10 - Strauss, R.: Der Rosenkavalier
R?gine Crespin, Yvonne Minton, Manfred Jungwirth, Luciano Pavarotti,
Wiener Philharmoniker, Sir Georg Solti

CD 11 & 12 - Donizetti: L'Elisir d'amore
Dame Joan Sutherland, Dominic Cossa, Spiro Malas, Luciano Pavarotti,
Ambrosian Opera Chorus; English Chamber Orchestra, Richard Bonynge

CD 13 & 14 - Verdi: Un Ballo in Maschera
Renata Tebaldi, Helen Donath, Regina Resnik, Sherrill Milnes, Luciano Pavarotti,
Orchestra e coro dell' Accademia di Santa Cecilia, Roma, Bruno Bartoletti

CD 15 & 16 - Verdi: Macbeth (Version 1865 for the Paris Opera)
Elena Suliotis, Dietrich Fischer-Dieskau, Nicolai Ghiaurov, Luciano Pavarotti,
Ambrosian Opera Chorus; London Philharmonic Orchestra, Lamberto Gardelli

Bellini, Beatrice di Tenda (London Symphony Orchestra - Richard Bonynge - Joan Sutherland, Josephine Veasey…)

Donizetti, La Fille du Régiment (Orchestra of the Royal Opera House - Richard Bonynge - Joan Sutherland, Monica Sinclair, Jules Bruyere)

Verdi, Requiem (Wiener Philharmoniker - Georg Solti - Joan Sutherland, Marilyn Horne, Martti Talvela)

Mascagni, L'Amico Fritz (Orchestra of the Royal Opera House - Gianandrea Gavazzeni - Mirella Freni, Laura Didier)

Strauss, Der Rosenkavalier (Wiener Philharmoniker - Sir Georg Solti - Régine Crespin, Yvonne Minton, Manfred Jungwirth)

Donizetti, L'elisir d'amore (English Chamber Orchestra - Richard Bonynge - Joan Sutherland, Dominic Cossa, Spiro Malas)

Verdi, Un ballo in maschera (Orchestra dell' Accademia di Santa Cecilia - Bruno Bartoletti - Renata Tebaldi, Helen Donath, Regina Resnik, Sherrill Milnes)

Verdi, Macbeth (London Philharmonic Orchestra - Lamberto Gardelli - Elena Suliotis, Dietrich Fischer-Dieskau, Nicolai Ghiaurov)

Rossini, Stabat Mater (London Symphony Orchestra - Istvan Kertesz - Pilar Lorengar, Yvonne Minton, Hans Sotin)

Verdi, Rigoletto (London Symphony Orchestra - Richard Bonynge - Joan Sutherland, Sherrill Milnes, Martti Talvela, Clifford Grant)

Donizetti, Lucia di Lammermoor (Orchestra of the Royal Opera House - Richard Bonynge - Joan Sutherland, Sherrill Milnes, Nicolai Ghiaurov, Ryland Davies)

Puccini, Turandot (London Philharmonic Orchestra - Zubin Mehta - Joan Sutherland, Montserrat Caballé, Nicolai Ghiaurov)

Puccini, La Bohème (Berliner Philharmoniker - Herbert von Karajan - Mirella Freni, Elizabeth Harwood, Rolando Panerai, Nicolai Ghiaurov)

Bellini, I Puritani (Orchestra of the Royal Opera House Covent Garden - Richard Bonynge - Joan Sutherland, Gian Carlo Luccardi, Nicolai Ghiaurov)

Puccini, Madama Butterfly (Wiener Philharmoniker - Herbert von Karajan - Mirella Freni, Christa Ludwig, Robert Kerns)

Donizetti, La Favorita (Orchestra del Teatro Comunale di Bologna - Richard Bonynge - Fiorenza Cossotto, Gabriel Bacquier, Nicolai Ghiaurov)

Donizetti, Maria Stuarda (Orchestra del Teatro Comunale di Bologna - Richard Bonynge - Joan Sutherland, Huguette Tourangeau)

Verdi, Luisa Miller (The National Philharmonic Orchestra - Peter Maag - Montserrat Caballé, Anna Reynolds, Sherrill Milnes; Richard van Allan)

Mascagni, Cavalleria Rusticana (The National Philharmonic Orchestra - Gianandrea Gavazzeni - Julia Varady, Ida Bormida, Piero Cappuccilli)

Leoncavallo, Pagliacci (The National Philharmonic Orchestra - Giuseppe Patanè - Mirella Freni, Ingvar Wixell, Vincenzo Bello)

Verdi, Il Trovatore (The National Philharmonic Orchestra - Richard Bonynge - Joan Sutherland, Marilyn Horne, Ingvar Wixell, Nicolai Ghiaurov)

Puccini, Tosca (The National Philharmonic Orchestra - Nicola Rescigno - Mirella Freni, Sherrill Milnes, Michel Sénéchal)

Rossini, Petite Messe solennelle (Verona Teatro Arena Orchestra - Gerhard Fackler- Mirella Freni, Lucia Valentini-Terrani, Ruggero Raimondi; Leone Magiera; Vittoria Rosetta)

Donizetti, Messa da Requiem (Verona Teatro Arena Orchestra - Gerhard Fackler - Renato Bruson, Viorica Cortez, Paolo Washington)

Rossini, Guglielmo Tell (The National Philharmonic Orchestra - Riccardo Chailly - Mirella Freni, Sherill Milnes, Nicolai Ghiaurov)

Verdi, La Traviata (The National Philharmonic Orchestra - Richard Bonynge - Joan Sutherland, Matteo Manuguerra)

Bellini, La Sonnambula (The National Philharmonic Orchestra - Richard Bonynge - Joan Sutherland, Della Jones, Nicolai Ghiaurov)

Ponchielli, La Gioconda (The National Philharmonic Orchestra - Bruno Bartoletti - Montserrat Caballé, Agnes Baltsa, Nicolai Ghiaurov)

Boito, Mefistofele (The National Philharmonic Orchestra - Oliviero de Fabritiis - Nicolai Ghiaurov, Mirella Freni, Montserrat Caballé)

Verdi, Un ballo in maschera (The National Philharmonic Orchestra - Sir Georg Solti - Margaret Price, Kathleen Battle, Renato Bruson, Christa Ludwig)

Giordano, Andrea Chénier (The National Philharmonic Orchestra - Riccardo Chailly - Montserrat Caballé, Leo Nucci, Astrid Varnay)

Mozart, Idomeneo (Metropolitan Opera - James Levine - Frederica von Stade, Ileana Cotrubas)

Bellini, Norma (Orchestra of the Welsh National Opera - Richard Bonynge - Joan Sutherland, Samuel Ramey, Kim Begley)

Verdi, Aida (Orchestra del Teatro alla Scala di Milano - Lorin Maazel - Maria Chiara, Ghena Dimitrova, Leo Nucci, Paata Burchuladze)

Verdi, Ernani (Orchestra of the Welsh National Opera - Richard Bonynge - Joan Sutherland, Leo Nucci, Paata Burchuladze)

Berlioz, Grande Messe des Morts, Op. 5 (Berliner Philharmoniker - James Levine)

Verdi, Rigoletto (Orchestra del Teatro Comunale di Bologna - Riccardo Chailly - June Anderson, Leo Nucci, Nicolai Ghiaurov, Shirley Verrett)

Donizetti, L'elisir d'amore (Metropolitan Opera Orchestra - James Levine - Kathleen Battle, Leo Nucci, Dawn Upshaw)

Verdi, Il Trovatore (Orchestra del Maggio Musicale Fiorentino - Zubin Mehta - Barbara Frittoli, Antonella Banaudi, Leo Nucci)

Verdi, Otello (Chicago Symphony Orchestra - Sir Georg Solti - Kiri Te Kanawa, Leo Nucci, Anthony Rolfe Johnson)

Verdi, La Traviata (Metropolitan Opera Orchestra - James Levine - Cheryl Studer, Juan Pons, Wendy White, Anthony Laciura)

Leoncavallo, Pagliacci (Philadelphia Orchestra - Riccardo Muti - Daniela Dessi, Juan Pons, Paolo Coni, Ernesto Gavazzi)

Puccini, Manon Lescaut (Metropolitan Opera Orchestra - James Levine - Mirella Freni, Dwayne Croft, Cecilia Bartoli, Giuseppe Taddei, Ramón Vargas)

Verdi, Don Carlo ( Orchestra del Teatro alla Scala di Milano - Riccardo Muti - Daniela Dessì, Luciana d’Intino, Samuel Ramey)

Verdi, Rigoletto (Metropolitan Opera Orchestra - James Levine - Vladimir Chernov, Cheryl Studer, Roberto Scandiuzzi)

Verdi, I Lombardi alla prima crociata (Metropolitan Opera Orchestra - James Levine - June Anderson, Richard Leech, Samuel Ramey, Patricia Racette)

Donizetti, L'elisir d'amore (English Chamber Orchestra - Richard Bonynge - Joan Sutherland, Dominic Cossa, Spiro Malas)

Donizetti, Lucia di Lammermoor (Orchestra of the Royal Opera House - Richard Bonynge - Joan Sutherland, Sherrill Milnes, Nicolai Ghiaurov, Ryland Davies)

Verdi, Rigoletto (London Symphony Orchestra - Richard Bonynge - Joan Sutherland, Sherrill Milnes, Martti Talvela, Clifford Grant)

Puccini, Turandot (London Philharmonic Orchestra - Zubin Mehta - Joan Sutherland, Montserrat Caballé, Nicolai Ghiaurov)

Puccini, Madama Butterfly (Wiener Philharmoniker - Herbert von Karajan - Mirella Freni, Christa Ludwig, Robert Kerns)

Puccini, La Bohème (Orchestra del Teatro Municipale di Reggio Emilia - Stelio Maroli - Vito Mattioli, Alberta Pellegrini - Modena, 1961)


Exact Audio Copy V1.3 from 2. September 2016

EAC extraction logfile from 2. August 2018, 9:43

Richard Bonynge/ LSO / CD01 - Bellini Beatrice di Tenda CD1

Used drive : PIONEER BD-RW BDR-208D Adapter: 1 ID: 1

Read mode : Burst

Read offset correction : 667
Overread into Lead-In and Lead-Out : No
Fill up missing offset samples with silence : Yes
Delete leading and trailing silent blocks : No
Null samples used in CRC calculations : Yes
Used interface : Native Win32 interface for Win NT & 2000

Used output format : Internal WAV Routines
Sample format : 44.100 Hz; 16 Bit; Stereo


TOC of the extracted CD

Track | Start | Length | Start sector | End sector
––––––––––––––––––––––––––––-
1 | 0:00.00 | 2:59.26 | 0 | 13450
2 | 2:59.26 | 5:00.24 | 13451 | 35974
3 | 7:59.50 | 9:24.15 | 35975 | 78289
4 | 17:23.65 | 5:00.33 | 78290 | 100822
5 | 22:24.23 | 6:58.24 | 100823 | 132196
6 | 29:22.47 | 7:29.04 | 132197 | 165875
7 | 36:51.51 | 3:50.12 | 165876 | 183137
8 | 40:41.63 | 3:55.25 | 183138 | 200787
9 | 44:37.13 | 2:49.50 | 200788 | 213512
10 | 47:26.63 | 4:47.15 | 213513 | 235052
11 | 52:14.03 | 6:16.35 | 235053 | 263287
12 | 58:30.38 | 5:29.72 | 263288 | 288034
13 | 64:00.35 | 10:20.32 | 288035 | 334566
14 | 74:20.67 | 1:34.04 | 334567 | 341620
15 | 75:54.71 | 8:02.16 | 341621 | 377786


Range status and errors

Selected range

Filename C:\Luciano Pavarotti - The Complete Operas\CD01\CD01 - Bellini Beatrice di Tenda CD1.wav

Timing problem 0:00:28

Peak level 97.5 %
Extraction speed 28.3 X
Copy CRC 215C3F07
Copy finished

No errors occurred


AccurateRip summary

Track 1 accurately ripped (confidence 12) [C28DE649] (AR v2)
Track 2 accurately ripped (confidence 12) [9897F711] (AR v2)
Track 3 accurately ripped (confidence 12) [2281CAD8] (AR v2)
Track 4 accurately ripped (confidence 12) [6637F03A] (AR v2)
Track 5 accurately ripped (confidence 12) [BAB224F3] (AR v2)
Track 6 accurately ripped (confidence 12) [0AEDB4F6] (AR v2)
Track 7 accurately ripped (confidence 12) [ADFDD008] (AR v2)
Track 8 accurately ripped (confidence 12) [A62CD9E4] (AR v2)
Track 9 accurately ripped (confidence 12) [D95DA4A4] (AR v2)
Track 10 accurately ripped (confidence 12) [4B7C4E2F] (AR v2)
Track 11 accurately ripped (confidence 12) [AA123A98] (AR v2)
Track 12 accurately ripped (confidence 12) [C1629E1B] (AR v2)
Track 13 accurately ripped (confidence 12) [1292F9B2] (AR v2)
Track 14 accurately ripped (confidence 12) [18B0D99D] (AR v2)
Track 15 accurately ripped (confidence 12) [5089D238] (AR v2)

All tracks accurately ripped

End of status report

–– CUETools DB Plugin V2.1.6

[CTDB TOCID: MBNUCE0iMN_61MQi279ZSTTiZYc-] found
Submit result: MBNUCE0iMN_61MQi279ZSTTiZYc- has been confirmed
Track | CTDB Status
1 | (26/26) Accurately ripped
2 | (26/26) Accurately ripped
3 | (26/26) Accurately ripped
4 | (26/26) Accurately ripped
5 | (26/26) Accurately ripped
6 | (26/26) Accurately ripped
7 | (26/26) Accurately ripped
8 | (26/26) Accurately ripped
9 | (26/26) Accurately ripped
10 | (26/26) Accurately ripped
11 | (26/26) Accurately ripped
12 | (26/26) Accurately ripped
13 | (26/26) Accurately ripped
14 | (26/26) Accurately ripped
15 | (26/26) Accurately ripped

==================================================

Exact Audio Copy V1.1 from 23. June 2015

EAC extraction logfile from 2. August 2018, 9:55

Richard Bonynge/ LSO / CD02 - Bellini Beatrice di Tenda CD2

Used drive : HL-DT-STBD-RE WH16NS40 Adapter: 1 ID: 0

Read mode : Secure
Utilize accurate stream : Yes
Defeat audio cache : Yes
Make use of C2 pointers : No

Read offset correction : 6
Overread into Lead-In and Lead-Out : No
Fill up missing offset samples with silence : Yes
Delete leading and trailing silent blocks : No
Null samples used in CRC calculations : Yes
Used interface : Native Win32 interface for Win NT & 2000

Used output format : Internal WAV Routines
Sample format : 44.100 Hz; 16 Bit; Stereo


TOC of the extracted CD

Track | Start | Length | Start sector | End sector
––––––––––––––––––––––––––––-
1 | 0:00.00 | 6:38.45 | 0 | 29894
2 | 6:38.45 | 3:17.45 | 29895 | 44714
3 | 9:56.15 | 6:48.39 | 44715 | 75353
4 | 16:44.54 | 3:45.11 | 75354 | 92239
5 | 20:29.65 | 9:01.58 | 92240 | 132872
6 | 29:31.48 | 2:08.14 | 132873 | 142486
7 | 31:39.62 | 4:39.42 | 142487 | 163453
8 | 36:19.29 | 6:11.22 | 163454 | 191300
9 | 42:30.51 | 2:59.02 | 191301 | 204727
10 | 45:29.53 | 10:52.42 | 204728 | 253669
11 | 56:22.20 | 7:32.49 | 253670 | 287618


Range status and errors

Selected range

Filename C:\Luciano Pavarotti - The Complete Operas\CD02\Richard Bonynge, LSO - CD02 - Bellini Beatrice di Tenda CD2.wav

Peak level 97.5 %
Extraction speed 3.4 X
Range quality 99.9 %
Copy CRC D00097C8
Copy OK

No errors occurred


AccurateRip summary

Track 1 accurately ripped (confidence 12) [C9025161] (AR v2)
Track 2 accurately ripped (confidence 12) [88B31581] (AR v2)
Track 3 accurately ripped (confidence 12) [E83FE333] (AR v2)
Track 4 accurately ripped (confidence 12) [F2BA361B] (AR v2)
Track 5 accurately ripped (confidence 12) [61303886] (AR v2)
Track 6 accurately ripped (confidence 12) [93C28956] (AR v2)
Track 7 accurately ripped (confidence 12) [837AD84A] (AR v2)
Track 8 accurately ripped (confidence 12) [0EB602AC] (AR v2)
Track 9 accurately ripped (confidence 12) [45D7587A] (AR v2)
Track 10 accurately ripped (confidence 12) [916FE1C6] (AR v2)
Track 11 accurately ripped (confidence 12) [33AE93FD] (AR v2)

All tracks accurately ripped

End of status report

–– CUETools DB Plugin V2.1.6

[CTDB TOCID: 9D7C1Q8I.9g7DkovPeWr1cr2ny8-] found
Submit result: 9D7C1Q8I.9g7DkovPeWr1cr2ny8- has been confirmed
Track | CTDB Status
1 | (26/26) Accurately ripped
2 | (26/26) Accurately ripped
3 | (26/26) Accurately ripped
4 | (26/26) Accurately ripped
5 | (26/26) Accurately ripped
6 | (26/26) Accurately ripped
7 | (26/26) Accurately ripped
8 | (26/26) Accurately ripped
9 | (26/26) Accurately ripped
10 | (26/26) Accurately ripped
11 | (26/26) Accurately ripped

===============================================

Exact Audio Copy V1.3 from 2. September 2016

EAC extraction logfile from 2. August 2018, 10:44

Richard Bonynge/ Royal Opera, Covent Garden / CD03 - Donizetti La Fille du Regiment CD1

Used drive : PIONEER BD-RW BDR-208D Adapter: 1 ID: 1

Read mode : Burst

Read offset correction : 667
Overread into Lead-In and Lead-Out : No
Fill up missing offset samples with silence : Yes
Delete leading and trailing silent blocks : No
Null samples used in CRC calculations : Yes
Used interface : Native Win32 interface for Win NT & 2000

Used output format : Internal WAV Routines
Sample format : 44.100 Hz; 16 Bit; Stereo


TOC of the extracted CD

Track | Start | Length | Start sector | End sector
––––––––––––––––––––––––––––-
1 | 0:00.00 | 6:44.56 | 0 | 30355
2 | 6:44.56 | 3:29.27 | 30356 | 46057
3 | 10:14.08 | 5:03.57 | 46058 | 68839
4 | 15:17.65 | 2:10.59 | 68840 | 78648
5 | 17:28.49 | 7:11.35 | 78649 | 111008
6 | 24:40.09 | 3:54.53 | 111009 | 128611
7 | 28:34.62 | 4:07.62 | 128612 | 147198
8 | 32:42.49 | 2:30.52 | 147199 | 158500
9 | 35:13.26 | 2:08.23 | 158501 | 168123
10 | 37:21.49 | 10:05.31 | 168124 | 213529
11 | 47:27.05 | 2:06.58 | 213530 | 223037
12 | 49:33.63 | 1:44.17 | 223038 | 230854
13 | 51:18.05 | 5:05.48 | 230855 | 253777
14 | 56:23.53 | 10:25.51 | 253778 | 300703


Range status and errors

Selected range

Filename C:\Luciano Pavarotti - The Complete Operas\CD03\CD03 - Donizetti La Fille du Regiment CD1.wav

Timing problem 0:00:38

Peak level 96.9 %
Extraction speed 26.1 X
Copy CRC F28D9251
Copy finished

No errors occurred


AccurateRip summary

Track 1 accurately ripped (confidence 17) [FBE1389B] (AR v2)
Track 2 accurately ripped (confidence 17) [B2BBD3DC] (AR v2)
Track 3 accurately ripped (confidence 17) [82097149] (AR v2)
Track 4 accurately ripped (confidence 17) [5394D3D8] (AR v2)
Track 5 accurately ripped (confidence 17) [C645E85E] (AR v2)
Track 6 accurately ripped (confidence 17) [66667AA7] (AR v2)
Track 7 accurately ripped (confidence 17) [57F0B748] (AR v2)
Track 8 accurately ripped (confidence 17) [3DFAF138] (AR v2)
Track 9 accurately ripped (confidence 17) [0852D40C] (AR v2)
Track 10 accurately ripped (confidence 17) [BF749F17] (AR v2)
Track 11 accurately ripped (confidence 17) [EC16D5C9] (AR v2)
Track 12 accurately ripped (confidence 17) [933A724A] (AR v2)
Track 13 accurately ripped (confidence 18) [883D3978] (AR v2)
Track 14 accurately ripped (confidence 17) [6336FB5A] (AR v2)

All tracks accurately ripped

End of status report

–– CUETools DB Plugin V2.1.6

[CTDB TOCID: ijvGCxKTTgOAoHvhQMszDnDJSZY-] found
Submit result: ijvGCxKTTgOAoHvhQMszDnDJSZY- has been confirmed
Track | CTDB Status
1 | (46/46) Accurately ripped
2 | (46/46) Accurately ripped
3 | (46/46) Accurately ripped
4 | (46/46) Accurately ripped
5 | (46/46) Accurately ripped
6 | (46/46) Accurately ripped
7 | (46/46) Accurately ripped
8 | (46/46) Accurately ripped
9 | (46/46) Accurately ripped
10 | (46/46) Accurately ripped
11 | (46/46) Accurately ripped
12 | (46/46) Accurately ripped
13 | (46/46) Accurately ripped
14 | (46/46) Accurately ripped


All 16 log files included…