Subcategories

Ludger Remy, Telemann-Kammerorchester Michaelstein, Kammerchor Michaelstein - Rolle: Christmas Oratorio (1997)

Posted By: ArlegZ
Ludger Remy, Telemann-Kammerorchester Michaelstein, Kammerchor Michaelstein - Rolle: Christmas Oratorio (1997)

Ludger Rémy, Telemann-Kammerorchester Michaelstein, Kammerchor Michaelstein - Rolle: Christmas Oratorio / Oratorium auf Weihnachten (1997)
EAC | FLAC | Image (Cue & Log) ~ 225 Mb | Total time: 47:29 | Scans included
Classical | Label: CPO | # 999 514-2 | Recorded: 1997

Johann Heinrich Rolle (1716-1785), who worked for more than 30 years as "Director musices" and Cantor at the Altstädtische Gymnasium in Magdeburg, enjoyed great popularity in his day and won. a. important as the founder of the first public concert series in Magdeburg. According to advertisements in the Magdeburger Zeitung, the oratorio was heard in December 1769 and 1771 within this »Rolleschen concert series«, and it has not yet been clarified whether the work was even used as regular church music. The text, of which the poet is unknown, does not describe the events in the field near Bethlehem as usual, but is devoted to religious considerations.
The chamber choir Michaelstein and the Telemann chamber orchestra Michaelstein under the experienced direction of Ludger Remy present this forgotten masterpiece of Central German music.

Performer:
Gundula Anders, soprano
Britta Schwarz, alto
Wilfried Jochens, tenor
Dirk Schmidt, bass
Kammerchor Michaelstein
Telemann-Kammerorchester Michaelstein
Conductor - Ludger Rémy

Track List:
01. Sinfonia
02. Chor: Ach! Ach! Dass du den Himmel zerrissest
03. Arie: Sei getrost, sei getrost
04. Rezitativ: Jetzt ist die Zeit erfüllt
05. Duett: Ach, sei uns willkommen, du göttlicher Segen
06. Rezitativ: Des Herren Engel steigt hernieder
07. Arie: Werdet voll Freuden, umschränket das Leiden
08. Rezitativ: Man wickelt das Kind in Windeln ein
09. Chor: Ehre sei Gott in der Höhe
10. Rezitativ: O Tochter Zion, freue dich
11. Choral: Gelobet seist du, Jesu Christ
12. Chor: Jauchzet, ihr Himmel, freue dich, Erde
13. Rezitativ: Der Tag des Heils ist angebrochen
14. Arie: Mein Nazarener, du bist die Freude meiner Seelen
15. Rezitativ: Ich nahe mich zu dir, mein Licht
16. Arie: Nun habe ich, was ich wünschen kann
17. Rezitativ: Mein Augenmerk, und mein Vergnügen
18. Choral: Der Sohn des Vaters, Gott von Art


Exact Audio Copy V1.3 from 2. September 2016

EAC extraction logfile from 19. December 2018, 12:52

Ludger Rémy, Telemann-Kammerorchester Michaelstein, Kammerchor Michaelstein / Rolle - Oratorium auf Weihnachten

Used drive : HL-DT-STDVDRAM GH24NS95 Adapter: 1 ID: 0

Read mode : Secure
Utilize accurate stream : Yes
Defeat audio cache : Yes
Make use of C2 pointers : No

Read offset correction : 6
Overread into Lead-In and Lead-Out : No
Fill up missing offset samples with silence : Yes
Delete leading and trailing silent blocks : No
Null samples used in CRC calculations : Yes
Used interface : Native Win32 interface for Win NT & 2000

Used output format : User Defined Encoder
Selected bitrate : 128 kBit/s
Quality : High
Add ID3 tag : No
Command line compressor : C:\Program Files\Exact Audio Copy\FLAC\FLAC.EXE
Additional command line options : -V -8 -T "Date=%year%" -T "Genre=%genre%" %source%


TOC of the extracted CD

Track | Start | Length | Start sector | End sector
––––––––––––––––––––––––––––-
1 | 0:00.00 | 2:58.32 | 0 | 13381
2 | 2:58.32 | 3:14.55 | 13382 | 27986
3 | 6:13.12 | 1:48.35 | 27987 | 36121
4 | 8:01.47 | 0:30.53 | 36122 | 38424
5 | 8:32.25 | 4:22.00 | 38425 | 58074
6 | 12:54.25 | 1:40.62 | 58075 | 65636
7 | 14:35.12 | 4:01.18 | 65637 | 83729
8 | 18:36.30 | 0:56.27 | 83730 | 87956
9 | 19:32.57 | 2:12.63 | 87957 | 97919
10 | 21:45.45 | 0:51.72 | 97920 | 101816
11 | 22:37.42 | 1:07.68 | 101817 | 106909
12 | 23:45.35 | 4:30.02 | 106910 | 127161
13 | 28:15.37 | 1:21.18 | 127162 | 133254
14 | 29:36.55 | 5:53.17 | 133255 | 159746
15 | 35:29.72 | 1:41.73 | 159747 | 167394
16 | 37:11.70 | 6:46.50 | 167395 | 197894
17 | 43:58.45 | 2:20.55 | 197895 | 208449
18 | 46:19.25 | 1:10.25 | 208450 | 213724


Range status and errors

Selected range

Filename C:\Program Files\Exact Audio Copy\Flac\Rolle - Oratorium auf Weihnachten.wav

Peak level 99.5 %
Extraction speed 7.4 X
Range quality 100.0 %
Test CRC 967165D8
Copy CRC 967165D8
Copy OK

No errors occurred

End of status report

==== Log checksum 7BE8AE468686FF00D63996A01CCC5D61D62503D6C8A455494F3383CB7743376E ====