Subcategories
Tags
Language
Tags

Ludus Modalis, Bruno Boterf - Paschal de L'Estocart: Deux coeurs aimants (2007)

Posted By: Designol
Ludus Modalis, Bruno Boterf - Paschal de L'Estocart: Deux coeurs aimants (2007)

Ludus Modalis, Bruno Boterf - Paschal de L'Estocart: Deux coeurs aimants (2007)
- Chansons, Ode, Psalms and Motets with 3 to 7 voices

EAC | FLAC | Image (Cue&Log) ~ 316 Mb | Mp3 (CBR320) ~ 149 Mb | Scans included
Classical, Choral, Renaissance | Label: Ramée | # RAM 0703 | Time: 01:04:45

Little is known of the life of Paschal de L'Estocart, the French composer of the late Renaissance who was roughly a contemporary of Claude Le Jeune (1528 -1600). He seems to have been sympathetic to the Protestant Reformers – he spent considerable time in Germany and his music was published in Geneva – but later in life he applied unsuccessfully to the French King for a position at an abbey. His collection of psalms and motets, Sacrae Cantiones, 16 of which are recorded here, are mostly in French, along with several in Latin, and was dedicated to Calvinist Count Palatine Johann Casimir in 1582. This collection also includes his Ode in 12 parts, set to religious texts in French. L'Estocart's music is typical of late Renaissance polyphony, eclectic in its use of a cantus firmus, imitative counterpoint, and homophonic writing, with an unusually free use of dissonance. The French mixed a cappella ensemble Ludus Modalis, led by Bruno Boterf, specializes in music of this era and sings with passion and authority. Intonation is immaculate and tone quality is pure and unforced. The recorded sound is clean, but spacious and warm.

Review by Stephen Eddins, Allmusic.com

There are many ensembles which concentrate on the polyphony of the renaissance. Most of them don't pay that much attention to French music written in the second half of the 16th century. French ensembles like the Ensemble Clément Janequin concentrate for the most part on the secular chanson. The sacred repertoire is not fully explored. That is certainly the case with compositions written under the influence of the Reformation. The ensemble Ludus Modalis here set about redressing the balance.

Not much is known about Paschal de l'Estocart. It is not unusual that a year of birth isn't exactly known, but in de l'Estocart’s case we don't even know when he died. All his music which has come down to us was printed in 1582; then he just disappears. There is some circumstantial evidence that he was still alive in 1587 but that’s about it.

His early years are also shrouded in mist. He was born in Noyon (Picardie) and lived for a while in Lyon, where he married in 1563. The next recorded landmark came in 1581 when he enrolled at Basle University. Here he came into contact with the Huguenot pastor Antoine de La Roche-Chandieu, one of the authors of the 'Octonaires de la vanité du monde', a collection of spiritual huitains, set to music by Claude Le Jeune and La Roche-Chandieu himself. The first and second book of the 'Octonaires' were set to music by L'Estocart as well. These were recorded in 1982 by the Ensemble Clément Janequin for Harmonia Mundi. There is every reason to believe that L'Estocart was at the very least sympathetic to the ideas of the Reformation.

The music on this disc is taken from the collection 'Sacrae Cantiones', which contains sacred music on both French and Latin texts. The fact that L'Estocart also used Latin texts gives food for thought that he could have been indecisive in his religious convictions. Composers had to think practically: the inclusion of motets on Latin texts increased the chance of commercial success. The texts of the motets included here (five of the total of 8) are certainly not in conflict with the ideas of the Reformation.

The French pieces belong to the genre called chanson spirituelle. Originally the chanson was mostly of a secular nature. In the wake of the Reformation the – often amorous – texts were replaced by sacred texts. After a while a new genre emerged: protestant songs with original texts and music. These were either metrical psalms (like those by Marot and De Bèze) or chansons spirituelles on non-biblical texts. Both genres are part of the 'Sacrae Cantiones' by L'Estocart.

The melody of a metrical psalm is used by L'Estocart in 'O combien et plaisant', a setting of Psalm 133 (O how pleasant and desirable to see brothers united, amicably). The melody, which appears in the tenor of L'Estocart’s setting, is sung unisono first.

The title of this disc refers to the chanson spirituelle 'Deux coeurs aimants' which is about love according to biblical principles: "Two hearts, in worthy and holy faith, cherishing the sweet pleasure, fidelity's reward". It gives some idea of the character of these chansons spirituelles, many of which are about sin and redemption.

The longest piece on this disc is the 'Ode en douze parties', a series of twelve chansons whose complete title declares the subject matter: "Ode, in which Jesus Christ, the very God and very man, reminds all Christians of the good they receive through him". Christ speaks in all of these pieces: six of the twelve begin with the words "Je suis" (I am). "The anaphoric construction (…) at the start of the strophes is set each time to a rising motif which spans a whole octave, possibly serving to symbolise the metaphysical distance between God and his creation"; so writes Anne Coeurdevey in the booklet. The twelve chansons span the whole of the Bible, beginning with "The work of the creation of the world", followed by "Jesus Christ came to redeem man", his death, resurrection and ascension to heaven and ending with an "Exhortation to Christians to seek all good in Jesus Christ, and uphold His holy word".

"The musical language of L'Estocart is influenced, as with all the French composers of his generation, by that of Lassus. The whole range of compositional techniques, from imitative counterpoint to homorhythmic chordal writing, are employed to serve the goal of expression, the neatness with which the musical syntax matches that of the text, rhythmic variety and the sense of movement (…), and the wide use of rhetoric figures (…)." A good example of chordal writing and use of rhythm to express the text is in the ninth of the chansons from the 'Ode en douze parties', on the text "I reduce the enflamed rage of haughty rulers to air, and dash their intrigues".

The ensemble is very profound in its approach to these compositions. As the chansons were meant to be sung at home, the ensemble have opted for a more intimate acoustic than in the motets. As one of the aims of the ensemble was "to allow the richness of the polyphonic writing as much space as possible" they have opted for a performance without instruments. The scoring of the pieces, written for four to seven voices, varies: "solo voices for the chansons spirituelles and at specific moments during the Ode; doubled upper voices for the psalms; and all doubled voices for the large-scale motets". They also chose to perform these pieces at - "historically justified" - low pitch and with the contemporary French and Latin pronunciation.

This approach has certainly paid off. The result is a recording which is just wonderful: it is difficult to decide what to admire most, the music or the performance. It is the combination of the two which makes this disc a winner. The music is first-rate: how well did L'Estocart translate the texts into music and how well he used the compositional tools of his time to express the meaning of those texts. The ensemble is first-rate: the intonation is immaculate, the blending of the voices and the balance between the voices in the ensemble is excellent. The rhythmic flexibility, the dynamic shading and the communication of the text are most admirable.

I have very much enjoyed this disc, and I sincerely hope Bruno Boterf and his colleagues will record more pieces by L'Estocart.

Review by Johan van Veen, MusicWeb-International


Ludus Modalis, Bruno Boterf - Paschal de L'Estocart: Deux coeurs aimants (2007)



Ludus Modalis, Bruno Boterf - Paschal de L'Estocart: Deux coeurs aimants (2007)




Tracklist:

01. Susanne un jour (03:55)
02. Quand je viens a penser (01:50)
03. Deux coeurs aimants (03:59)
04. Je ne veux plus bastir (01:36)
05. Helas mon Dieu (03:00)
06. Ou est le vray pays (01:16)
07. O combien est plaisant (04:48)
08. Quelle est ta loy ? (03:29)
09. D'un oeil pleurant (03:51)
10. Pour mourir bien heureux (01:43)

Ode en douze parties:
11. I. L'oeuvre de la creation du monde (01:53)
12. II. De la creation de l'homme (02:07)
13. III. L'homme cree a l'image de Dieu (01:49)
14. IV. La cheute miserable de l'homme (01:22)
15. V. Jesus Christ venu pour racheter l'homme (02:07)
16. VI. Sa mort, et le fruict d'icelle (02:08)
17. VII. Sa resurection, et le fruict d'icelle (02:03)
18. VIII. Son ascension au ciel, et le fruict d'icelle (01:28)
19. IX. Son assiette a la dextre du Pere, et le fruict d'icelle (01:31)
20. X. Sa presence au milieu des siens du fruict d'icelle (01:31)
21. XI. Qui sont les vrais Chrestiens, et en quoy gist leur fiance (02:04)
22. XII. Exhortation aux chrestiens a cercher tout bien en JC (02:35)

23. Dieu est regnant (01:05)
24. Ut tibi mors foelix (01:36)
25. Peccantem me quotidie (02:55)
26. Angelus autem (02:37)
27. Quos anguis dirus (01:44)
28. Inter natos (02:32)


Exact Audio Copy V1.1 from 23. June 2015

EAC extraction logfile from 30. October 2015, 8:33

Ludus Modalis / Paschal de L'Estocart - Deux coeurs aimants

Used drive : HL-DT-STDVDRAM GU70N Adapter: 1 ID: 0

Read mode : Secure
Utilize accurate stream : Yes
Defeat audio cache : Yes
Make use of C2 pointers : No

Read offset correction : 48
Overread into Lead-In and Lead-Out : No
Fill up missing offset samples with silence : Yes
Delete leading and trailing silent blocks : No
Null samples used in CRC calculations : Yes
Used interface : Native Win32 interface for Win NT & 2000

Used output format : User Defined Encoder
Selected bitrate : 128 kBit/s
Quality : High
Add ID3 tag : No
Command line compressor : C:\Program Files (x86)\Exact Audio Copy\Flac\flac.exe
Additional command line options : -V -8 -T "Date=%year%" -T "Genre=%genre%" %source%


TOC of the extracted CD

Track | Start | Length | Start sector | End sector
––––––––––––––––––––––––––––-
1 | 0:00.00 | 3:55.65 | 0 | 17689
2 | 3:55.65 | 1:50.13 | 17690 | 25952
3 | 5:46.03 | 3:59.70 | 25953 | 43947
4 | 9:45.73 | 1:36.06 | 43948 | 51153
5 | 11:22.04 | 3:00.03 | 51154 | 64656
6 | 14:22.07 | 1:16.08 | 64657 | 70364
7 | 15:38.15 | 4:48.59 | 70365 | 92023
8 | 20:26.74 | 3:29.07 | 92024 | 107705
9 | 23:56.06 | 3:51.50 | 107706 | 125080
10 | 27:47.56 | 1:43.39 | 125081 | 132844
11 | 29:31.20 | 1:53.38 | 132845 | 141357
12 | 31:24.58 | 2:07.66 | 141358 | 150948
13 | 33:32.49 | 1:49.43 | 150949 | 159166
14 | 35:22.17 | 1:22.02 | 159167 | 165318
15 | 36:44.19 | 2:07.13 | 165319 | 174856
16 | 38:51.32 | 2:08.23 | 174857 | 184479
17 | 40:59.55 | 2:03.31 | 184480 | 193735
18 | 43:03.11 | 1:28.62 | 193736 | 200397
19 | 44:31.73 | 1:31.35 | 200398 | 207257
20 | 46:03.33 | 1:31.17 | 207258 | 214099
21 | 47:34.50 | 2:04.02 | 214100 | 223401
22 | 49:38.52 | 2:35.24 | 223402 | 235050
23 | 52:14.01 | 1:05.20 | 235051 | 239945
24 | 53:19.21 | 1:36.20 | 239946 | 247165
25 | 54:55.41 | 2:55.35 | 247166 | 260325
26 | 57:51.01 | 2:37.57 | 260326 | 272157
27 | 60:28.58 | 1:44.17 | 272158 | 279974
28 | 62:13.00 | 2:32.56 | 279975 | 291430


Range status and errors

Selected range

Filename C:\temp\RAM 0703 Paschal de L'Estocart - Deux coeurs aimants\Paschal de L'Estocart - Deux coeurs aimants.wav

Peak level 98.0 %
Extraction speed 2.1 X
Range quality 99.9 %
Test CRC 870DFF3B
Copy CRC 870DFF3B
Copy OK

No errors occurred


AccurateRip summary

Track 1 accurately ripped (confidence 1) [0F577A15] (AR v2)
Track 2 accurately ripped (confidence 1) [C62E63E3] (AR v2)
Track 3 accurately ripped (confidence 1) [968A20B0] (AR v2)
Track 4 accurately ripped (confidence 1) [B6F1F481] (AR v2)
Track 5 accurately ripped (confidence 1) [26032E81] (AR v2)
Track 6 accurately ripped (confidence 1) [86F425E3] (AR v2)
Track 7 accurately ripped (confidence 1) [76264F43] (AR v2)
Track 8 accurately ripped (confidence 1) [33B10813] (AR v2)
Track 9 accurately ripped (confidence 1) [13819A29] (AR v2)
Track 10 accurately ripped (confidence 1) [00FB5021] (AR v2)
Track 11 accurately ripped (confidence 1) [E7F4F809] (AR v2)
Track 12 accurately ripped (confidence 1) [63415563] (AR v2)
Track 13 accurately ripped (confidence 1) [65C7C1F5] (AR v2)
Track 14 accurately ripped (confidence 1) [FAF56568] (AR v2)
Track 15 accurately ripped (confidence 1) [B2C58AC3] (AR v2)
Track 16 accurately ripped (confidence 1) [01658C88] (AR v2)
Track 17 accurately ripped (confidence 1) [6A7E931E] (AR v2)
Track 18 accurately ripped (confidence 1) [ED5C474D] (AR v2)
Track 19 accurately ripped (confidence 1) [0025F3B0] (AR v2)
Track 20 accurately ripped (confidence 1) [1346B651] (AR v2)
Track 21 accurately ripped (confidence 1) [802C35AB] (AR v2)
Track 22 accurately ripped (confidence 1) [B281A9C9] (AR v2)
Track 23 accurately ripped (confidence 1) [2A828F84] (AR v2)
Track 24 accurately ripped (confidence 1) [AAE8F678] (AR v2)
Track 25 accurately ripped (confidence 1) [18F74A85] (AR v2)
Track 26 accurately ripped (confidence 1) [3E165B4C] (AR v2)
Track 27 accurately ripped (confidence 1) [3F719029] (AR v2)
Track 28 accurately ripped (confidence 1) [8F4AFC10] (AR v2)

All tracks accurately ripped

End of status report

==== Log checksum 588479F96B6C996FC91680A438BE621F2043BE5B94101BF98AEF1A9BCE7ED6AC ====

foobar2000 1.2 / Dynamic Range Meter 1.1.1
log date: 2016-08-19 16:38:25

––––––––––––––––––––––––––––––––––––––––
Analyzed: Ludus Modalis / Paschal de L'Estocart - Deux coeurs aimants
––––––––––––––––––––––––––––––––––––––––

DR Peak RMS Duration Track
––––––––––––––––––––––––––––––––––––––––
DR12 -0.81 dB -16.45 dB 3:56 01-Susanne un jour
DR14 -3.86 dB -22.76 dB 1:50 02-Quand je viens a penser
DR13 -3.87 dB -21.38 dB 4:00 03-Deux coeurs aimants
DR11 -0.17 dB -17.01 dB 1:36 04-Je ne veux plus bastir
DR14 -5.05 dB -22.85 dB 3:00 05-Helas mon Dieu
DR12 -2.93 dB -22.22 dB 1:16 06-Ou est le vray pays
DR13 -2.15 dB -20.39 dB 4:49 07-O combien est plaisant
DR14 -2.76 dB -21.05 dB 3:29 08-Quelle est ta loy ?
DR13 -1.64 dB -20.70 dB 3:52 09-D'un oeil pleurant
DR11 -1.29 dB -18.59 dB 1:44 10-Pour mourir bien heureux
DR11 -1.65 dB -16.93 dB 1:54 11-Ode en douze parties - I. L'oeuvre de la creation du monde
DR12 -3.20 dB -20.81 dB 2:08 12-Ode en douze parties - II. De la creation de l'homme
DR13 -3.23 dB -22.51 dB 1:50 13-Ode en douze parties - III. L'homme cree a l'image de Dieu
DR12 -5.11 dB -20.45 dB 1:22 14-Ode en douze parties - IV. La cheute miserable de l'homme
DR12 -2.90 dB -21.01 dB 2:07 15-Ode en douze parties - V. Jesus Christ venu pour racheter l'homme
DR12 -2.62 dB -20.21 dB 2:08 16-Ode en douze parties - VI. Sa mort, et le fruict d'icelle
DR12 -1.80 dB -19.76 dB 2:03 17-Ode en douze parties - VII. Sa resurection, et le fruict d'icelle
DR11 -4.53 dB -20.20 dB 1:29 18-Ode en douze parties - VIII. Son ascension au ciel, et le fruict d'icelle
DR13 -1.82 dB -19.54 dB 1:31 19-Ode en douze parties - IX. Son assiette a la dextre du Pere, et le fruict d'icelle
DR12 -1.45 dB -18.03 dB 1:31 20-Ode en douze parties - X. Sa presence au milieu des siens du fruict d'icelle
DR12 -3.21 dB -20.17 dB 2:04 21-Ode en douze parties - XI. Qui sont les vrais Chrestiens, et en quoy gist leur fiance
DR12 -1.06 dB -17.34 dB 2:35 22-Ode en douze parties - XII. Exhortation aux chrestiens a cercher tout bien en JC
DR11 -2.57 dB -19.04 dB 1:05 23-Dieu est regnant
DR12 -2.08 dB -19.35 dB 1:36 24-Ut tibi mors foelix
DR12 -5.65 dB -21.61 dB 2:55 25-Peccantem me quotidie
DR11 -1.43 dB -17.36 dB 2:38 26-Angelus autem
DR11 -2.70 dB -17.94 dB 1:44 27-Quos anguis dirus
DR11 -0.87 dB -15.45 dB 2:33 28-Inter natos
––––––––––––––––––––––––––––––––––––––––

Number of tracks: 28
Official DR value: DR12

Samplerate: 44100 Hz
Channels: 2
Bits per sample: 16
Bitrate: 680 kbps
Codec: FLAC
================================================================================

Ludus Modalis, Bruno Boterf - Paschal de L'Estocart: Deux coeurs aimants (2007)

All thanks to original releaser - A-Z

More interesting music in My Blog