Tags
Language
Tags

Morning - s/t (1970) {2009 Wounded Bird}

Posted By: TestTickles
Morning - s/t (1970) {2009 Wounded Bird}

Morning - s/t (1970) {2009 Wounded Bird}
EAC Rip | FLAC with CUE and log | scans | 243 mb
MP3 CBR 320kbps | RAR | 97 mb
Genre: folk rock, psychedelic rock

Morning is the 1970 debut album from Los Angeles psychedelic pop band Morning. Originally released on the Vault label, this was reissued on CD in 2009 by Wounded Bird.

Morning - s/t (1970) {2009 Wounded Bird}

01. Angelina (3:27)
02. Early Morning (2:40)
03. Tell Me A Story (3:13)
04. Easy Keeper (2:09)
05. Roll 'Em Down (3:05)
06. Sleepy Eyes (3:25)
07. New Day (1:35)
08. As It Was (2:50)
09. Time (3:32)
10. It'll Take Time (2:30)
11. And I'm Gone (5:23)
12. Dirt Roads (1:25)

Barry Brown-guitar, drums, vocals
Jim Hobson-piano, organ, vocals
Jay Lewis-guitars, banjo, vocals
Jim Kehn-drums, guitar, vocals
Bruce Wallace-electric bass, string bass
Terry Johnson-guitar

Produced & arranged by Jay Lewis, Jim Hobson & Barry Brown
Engineered by Jay Lewis & Matt Hyde

EAC extraction logfile from 11. March 2012, 12:32

Morning / s-t

Used drive : TSSTcorpCD/DVDW TS-L632D Adapter: 0 ID: 0

Read mode : Secure
Utilize accurate stream : Yes
Defeat audio cache : No
Make use of C2 pointers : Yes

Read offset correction : 6
Overread into Lead-In and Lead-Out : No
Fill up missing offset samples with silence : Yes
Delete leading and trailing silent blocks : No
Null samples used in CRC calculations : No
Used interface : Native Win32 interface for Win NT & 2000

Used output format : Internal WAV Routines
Sample format : 44.100 Hz; 16 Bit; Stereo


TOC of the extracted CD

Track | Start | Length | Start sector | End sector
––––––––––––––––––––––––––––-
1 | 0:00.00 | 3:27.47 | 0 | 15571
2 | 3:27.47 | 2:40.68 | 15572 | 27639
3 | 6:08.40 | 3:11.03 | 27640 | 41967
4 | 9:19.43 | 2:07.20 | 41968 | 51512
5 | 11:26.63 | 3:07.36 | 51513 | 65573
6 | 14:34.24 | 3:28.22 | 65574 | 81195
7 | 18:02.46 | 1:34.12 | 81196 | 88257
8 | 19:36.58 | 2:49.23 | 88258 | 100955
9 | 22:26.06 | 3:32.41 | 100956 | 116896
10 | 25:58.47 | 2:35.21 | 116897 | 128542
11 | 28:33.68 | 5:19.42 | 128543 | 152509
12 | 33:53.35 | 1:28.24 | 152510 | 159133


Range status and errors

Selected range

Filename C:\cuntfist\FLAC\Morning - s-t (1970) [FLAC] {2009 Wounded Bird}\Morning - s-t .wav

Peak level 95.9 %
Range quality 100.0 %
Copy CRC 66FEF12D
Copy OK

No errors occurred


End of status report


Morning - s/t (1970) {2009 Wounded Bird}


Thank you to the original uploader.