Tags
Language
Tags

Method Man & Redman - Blackout! (1999) {Def Jam Recordings}

Posted By: TestTickles
Method Man & Redman - Blackout! (1999) {Def Jam Recordings}

Method Man & Redman - Blackout! (1999) {Def Jam Recordings}
EAC Rip | FLAC with CUE and LOG | scans | 429 mb
MP3 CBR 320 kbps | RAR | 157 mb
Genre: hip-hop, rap

Blackout! is the first collaborative album project between Clifford Smith and Reginald Noble, better known as Wu-Tang Clan's Method Man and Redman of Redman fame. This was released in 1999 by Def Jam Recordings.

Method Man & Redman - Blackout! (1999) {Def Jam Recordings}

01. A Special Joint (Intro)
02. Blackout
03. Mi Casa
04. Y.O.U.
05. 4 Seasons
06. Cereal Killer
07. Da Rockwilder
08. Tear It Off
09. Where We At (Skit)
10. 1, 2, 1, 2
11. Maaad Crew
12. Run 4 Cover
13. The Q
14. Dat's Dat Shit
15. Cheka
16. Fire Ina Hole
17. Well All Rite Cha
18. Big Dogs
19. How High (Remix)

Track 5 featuring Ja Rule & LL Cool J
Track 12 featuring Ghostface Killah & Street
Track 14 featuring Mally G

EAC extraction logfile from 21. October 2006, 16:22 for CD
Method Man & Redman / Blackout

Used drive : HL-DT-STRW/DVD GCC-4243N Adapter: 1 ID: 0
Read mode : Secure with NO C2, accurate stream, disable cache
Read offset correction : 102
Overread into Lead-In and Lead-Out : No

Used output format : C:\Program Files\Exact Audio Copy\flac.exe (User Defined Encoder)
320 kBit/s
Additional command line options : -V -8 -T "artist=%a" -T "title=%t" -T "album=%g" -T "date=%y" -T "tracknumber=%n" -T "genre=%m" %s

Other options :
Fill up missing offset samples with silence : Yes
Delete leading and trailing silent blocks : No
Installed external ASPI interface


Track 1
Filename C:\cuntfist\FLAC\Method Man & Redman - Blackout! (1999) [FLAC] {Def Jam Recordings}\01 - A Special Joint (Intro).wav

Pre-gap length 0:00:02.42

Peak level 100.0 %
Track quality 100.0 %
Test CRC 5637204A
Copy CRC 5637204A
Copy OK

Track 2
Filename C:\cuntfist\FLAC\Method Man & Redman - Blackout! (1999) [FLAC] {Def Jam Recordings}\02 - Blackout.wav

Peak level 100.0 %
Track quality 100.0 %
Test CRC 953C7D9E
Copy CRC 953C7D9E
Copy OK

Track 3
Filename C:\cuntfist\FLAC\Method Man & Redman - Blackout! (1999) [FLAC] {Def Jam Recordings}\03 - Mi Casa.wav

Peak level 100.0 %
Track quality 100.0 %
Test CRC 975920BA
Copy CRC 975920BA
Copy OK

Track 4
Filename C:\cuntfist\FLAC\Method Man & Redman - Blackout! (1999) [FLAC] {Def Jam Recordings}\04 - Y.O.U..wav

Peak level 100.0 %
Track quality 100.0 %
Test CRC F41247CE
Copy CRC F41247CE
Copy OK

Track 5
Filename C:\cuntfist\FLAC\Method Man & Redman - Blackout! (1999) [FLAC] {Def Jam Recordings}\05 - 4 Seasons.wav

Peak level 100.0 %
Track quality 99.9 %
Test CRC C08CC616
Copy CRC C08CC616
Copy OK

Track 6
Filename C:\cuntfist\FLAC\Method Man & Redman - Blackout! (1999) [FLAC] {Def Jam Recordings}\06 - Cereal Killer.wav

Peak level 100.0 %
Track quality 99.9 %
Test CRC 5BF7C993
Copy CRC 5BF7C993
Copy OK

Track 7
Filename C:\cuntfist\FLAC\Method Man & Redman - Blackout! (1999) [FLAC] {Def Jam Recordings}\07 - Da Rockwilder.wav

Peak level 100.0 %
Track quality 100.0 %
Test CRC 7C644CD7
Copy CRC 7C644CD7
Copy OK

Track 8
Filename C:\cuntfist\FLAC\Method Man & Redman - Blackout! (1999) [FLAC] {Def Jam Recordings}\08 - Tear It Off.wav

Peak level 100.0 %
Track quality 100.0 %
Test CRC 3E80D599
Copy CRC 3E80D599
Copy OK

Track 9
Filename C:\cuntfist\FLAC\Method Man & Redman - Blackout! (1999) [FLAC] {Def Jam Recordings}\09 - Where We At (Skit).wav

Pre-gap length 0:00:00.97

Peak level 100.0 %
Track quality 100.0 %
Test CRC 57B93D4D
Copy CRC 57B93D4D
Copy OK

Track 10
Filename C:\cuntfist\FLAC\Method Man & Redman - Blackout! (1999) [FLAC] {Def Jam Recordings}\10 - 1, 2, 1, 2.wav

Peak level 100.0 %
Track quality 99.9 %
Test CRC 4C3FA8AA
Copy CRC 4C3FA8AA
Copy OK

Track 11
Filename C:\cuntfist\FLAC\Method Man & Redman - Blackout! (1999) [FLAC] {Def Jam Recordings}\11 - Maaad Crew.wav

Peak level 100.0 %
Track quality 100.0 %
Test CRC EE0FADBB
Copy CRC EE0FADBB
Copy OK

Track 12
Filename C:\cuntfist\FLAC\Method Man & Redman - Blackout! (1999) [FLAC] {Def Jam Recordings}\12 - Run 4 Cover.wav

Peak level 100.0 %
Track quality 100.0 %
Test CRC 525B86EE
Copy CRC 525B86EE
Copy OK

Track 13
Filename C:\cuntfist\FLAC\Method Man & Redman - Blackout! (1999) [FLAC] {Def Jam Recordings}\13 - The Q.wav

Peak level 100.0 %
Track quality 100.0 %
Test CRC 026D07A5
Copy CRC 026D07A5
Copy OK

Track 14
Filename C:\cuntfist\FLAC\Method Man & Redman - Blackout! (1999) [FLAC] {Def Jam Recordings}\14 - Dat's Dat Shit.wav

Peak level 100.0 %
Track quality 99.9 %
Test CRC C38C4329
Copy CRC C38C4329
Copy OK

Track 15
Filename C:\cuntfist\FLAC\Method Man & Redman - Blackout! (1999) [FLAC] {Def Jam Recordings}\15 - Cheka.wav

Peak level 100.0 %
Track quality 100.0 %
Test CRC 371E8B8A
Copy CRC 371E8B8A
Copy OK

Track 16
Filename C:\cuntfist\FLAC\Method Man & Redman - Blackout! (1999) [FLAC] {Def Jam Recordings}\16 - Fire Ina Hole.wav

Pre-gap length 0:00:00.06

Peak level 100.0 %
Track quality 100.0 %
Test CRC 2D05CEC3
Copy CRC 2D05CEC3
Copy OK

Track 17
Filename C:\cuntfist\FLAC\Method Man & Redman - Blackout! (1999) [FLAC] {Def Jam Recordings}\17 - Well All Rite Cha.wav

Peak level 100.0 %
Track quality 99.9 %
Test CRC C46F3A8F
Copy CRC C46F3A8F
Copy OK

Track 18
Filename C:\cuntfist\FLAC\Method Man & Redman - Blackout! (1999) [FLAC] {Def Jam Recordings}\18 - Big Dogs.wav

Peak level 100.0 %
Track quality 100.0 %
Test CRC BF0F71E8
Copy CRC BF0F71E8
Copy OK

Track 19
Filename C:\cuntfist\FLAC\Method Man & Redman - Blackout! (1999) [FLAC] {Def Jam Recordings}\19 - How High (Remix).wav

Peak level 97.7 %
Track quality 100.0 %
Test CRC 8A4A6DED
Copy CRC 8A4A6DED
Copy OK

No errors occured


End of status report


Method Man & Redman - Blackout! (1999) {Def Jam Recordings}


Thank you to the original uploader.