Subcategories
Tags
Language
Tags

Masako - s/t (vinyl rip) (1962) {201x Mahalo}

Posted By: TestTickles
Masako - s/t (vinyl rip) (1962) {201x Mahalo}

Masako - s/t (vinyl rip) (1962) {201x Mahalo}
EAC Rip | FLAC with CUE and log | scans | 221 mb
MP3 CBR 320kbps | RAR | 93 mb
Genre: R&B, jazz, vocal jazz

Darlene Yoshimoto was a Japanese singer from Honolulu who was a member of an R&B group with Teddy Tanaka but also released a few songs on her own. After Hawaii's statehood in 1959, she looked forward to being a teen sensation but wanted to show maturity so she made music that represented vocal jazz/pop jazz. She released a full album on the Mahalo company and had intentions of becoming a success not only as a singer but also an actress. This unofficial compilation made sometime in the 2010's opens with two songs she did with Tanaka and ends with two songs from the mid-1960's, which lead to ending her singing career. But the full-length album she did in 1962 is quite good and remains unreleased on CD so this is a vinyl rip.

Masako - s/t (vinyl rip) (1962) {201x Mahalo}

01. Darlene & The Jokers - Frankie (Bonus Track)
02. Darlene Yoshimoto - Love Me Love Me (Bonus Track)
03. I'll String Along With You
04. My Coloring Book
05. My Blue Heaven
06. Dream River (Kawa Wa Nagareru)
07. Poor Butterfly
08. The Things I Love
09. Baby Face
10. Autumn Leaves
11. Here Is Happiness (Koko Ni Sachi Ari)
12. It's Only A Paper Moon
13. Heart And Soul
14. Richer Than I
15. Lahainaluna (Bonus Track)
16. I Will Remember You (Bonus Track)

Exact Audio Copy V1.6 from 23. October 2020

EAC extraction logfile from 25. May 2021, 11:15

Masako / Masako

Used drive : HL-DT-STDVD+-RW GT32N Adapter: 1 ID: 0

Read mode : Burst

Read offset correction : 0
Overread into Lead-In and Lead-Out : No
Fill up missing offset samples with silence : Yes
Delete leading and trailing silent blocks : No
Null samples used in CRC calculations : Yes
Used interface : Native Win32 interface for Win NT & 2000
Gap handling : Appended to previous track

Used output format : Internal WAV Routines
Sample format : 44.100 Hz; 16 Bit; Stereo


TOC of the extracted CD

Track | Start | Length | Start sector | End sector
––––––––––––––––––––––––––––-
1 | 0:00.00 | 2:22.28 | 0 | 10677
2 | 2:22.28 | 2:00.38 | 10678 | 19715
3 | 4:22.66 | 2:42.70 | 19716 | 31935
4 | 7:05.61 | 2:48.03 | 31936 | 44538
5 | 9:53.64 | 2:00.34 | 44539 | 53572
6 | 11:54.23 | 3:10.32 | 53573 | 67854
7 | 15:04.55 | 2:09.71 | 67855 | 77600
8 | 17:14.51 | 2:36.61 | 77601 | 89361
9 | 19:51.37 | 1:48.51 | 89362 | 97512
10 | 21:40.13 | 3:33.32 | 97513 | 113519
11 | 25:13.45 | 2:29.05 | 113520 | 124699
12 | 27:42.50 | 2:23.54 | 124700 | 135478
13 | 30:06.29 | 2:14.12 | 135479 | 145540
14 | 32:20.41 | 2:51.73 | 145541 | 158438
15 | 35:12.39 | 2:09.30 | 158439 | 168143
16 | 37:21.69 | 2:36.74 | 168144 | 179917


Track 1

Filename C:\cuntfist\FLAC\Masako - s-t (1962) [FLAC] {Mahalo}\01 - Frankie (Bonus Track).wav

Pre-gap length 0:00:02.00

Peak level 100.0 %
Extraction speed 10.1 X
Test CRC B1A68B37
Copy CRC B1A68B37
Copy OK

Track 2

Filename C:\cuntfist\FLAC\Masako - s-t (1962) [FLAC] {Mahalo}\02 - Love Me Love Me (Bonus Track).wav

Peak level 91.6 %
Extraction speed 11.4 X
Test CRC FDA13CDB
Copy CRC FDA13CDB
Copy OK

Track 3

Filename C:\cuntfist\FLAC\Masako - s-t (1962) [FLAC] {Mahalo}\03 - I'll String Along With You.wav

Peak level 100.0 %
Extraction speed 8.0 X
Test CRC 3303EA75
Copy CRC 3303EA75
Copy OK

Track 4

Filename C:\cuntfist\FLAC\Masako - s-t (1962) [FLAC] {Mahalo}\04 - My Coloring Book.wav

Peak level 100.0 %
Extraction speed 6.4 X
Test CRC A770D5EB
Copy CRC A770D5EB
Copy OK

Track 5

Filename C:\cuntfist\FLAC\Masako - s-t (1962) [FLAC] {Mahalo}\05 - My Blue Heaven.wav

Peak level 97.9 %
Extraction speed 9.0 X
Test CRC 141A1D51
Copy CRC 141A1D51
Copy OK

Track 6

Filename C:\cuntfist\FLAC\Masako - s-t (1962) [FLAC] {Mahalo}\06 - Dream River (Kawa Wa Nagareru).wav

Peak level 90.7 %
Extraction speed 13.9 X
Test CRC 3CF50AA9
Copy CRC 3CF50AA9
Copy OK

Track 7

Filename C:\cuntfist\FLAC\Masako - s-t (1962) [FLAC] {Mahalo}\07 - Poor Butterfly.wav

Peak level 100.0 %
Extraction speed 14.5 X
Test CRC B09CCAB2
Copy CRC B09CCAB2
Copy OK

Track 8

Filename C:\cuntfist\FLAC\Masako - s-t (1962) [FLAC] {Mahalo}\08 - The Things I Love.wav

Peak level 100.0 %
Extraction speed 8.5 X
Test CRC 2F5DC998
Copy CRC 2F5DC998
Copy OK

Track 9

Filename C:\cuntfist\FLAC\Masako - s-t (1962) [FLAC] {Mahalo}\09 - Baby Face.wav

Peak level 100.0 %
Extraction speed 15.1 X
Test CRC 68F6303A
Copy CRC 68F6303A
Copy OK

Track 10

Filename C:\cuntfist\FLAC\Masako - s-t (1962) [FLAC] {Mahalo}\10 - Autumn Leaves.wav

Peak level 100.0 %
Extraction speed 16.2 X
Test CRC 35F4A7AB
Copy CRC 35F4A7AB
Copy OK

Track 11

Filename C:\cuntfist\FLAC\Masako - s-t (1962) [FLAC] {Mahalo}\11 - Here Is Happiness (Koko Ni Sachi Ari).wav

Peak level 100.0 %
Extraction speed 16.6 X
Test CRC CCB44CC5
Copy CRC CCB44CC5
Copy OK

Track 12

Filename C:\cuntfist\FLAC\Masako - s-t (1962) [FLAC] {Mahalo}\12 - It's Only A Paper Moon.wav

Peak level 100.0 %
Extraction speed 17.2 X
Test CRC AB520BC5
Copy CRC AB520BC5
Copy OK

Track 13

Filename C:\cuntfist\FLAC\Masako - s-t (1962) [FLAC] {Mahalo}\13 - Heart And Soul.wav

Peak level 100.0 %
Extraction speed 8.2 X
Test CRC 135E8C7E
Copy CRC 135E8C7E
Copy OK

Track 14

Filename C:\cuntfist\FLAC\Masako - s-t (1962) [FLAC] {Mahalo}\14 - Richer Than I.wav

Peak level 100.0 %
Extraction speed 6.3 X
Test CRC A1A3546A
Copy CRC A1A3546A
Copy OK

Track 15

Filename C:\cuntfist\FLAC\Masako - s-t (1962) [FLAC] {Mahalo}\15 - Lahainaluna (Bonus Track).wav

Peak level 100.0 %
Extraction speed 4.9 X
Test CRC 3544D9C0
Copy CRC 3544D9C0
Copy OK

Track 16

Filename C:\cuntfist\FLAC\Masako - s-t (1962) [FLAC] {Mahalo}\16 - I Will Remember You (Bonus Track).wav

Peak level 100.0 %
Extraction speed 6.5 X
Test CRC 4E2B4CCF
Copy CRC 4E2B4CCF
Copy OK

No errors occurred

End of status report

–– CUETools DB Plugin V2.1.6

[CTDB TOCID: wBDR.1zZx.gl0Zvdzn154Z.VJXc-] disk not present in database
Submit result: wBDR.1zZx.gl0Zvdzn154Z.VJXc- has been uploaded



Masako - s/t (vinyl rip) (1962) {201x Mahalo}