Subcategories

Madonna - Who's That Girl (Original Motion Picture Soundtrack) (1987) {Sire/Warner Bros.}

Posted By: TestTickles
Madonna - Who's That Girl (Original Motion Picture Soundtrack) (1987) {Sire/Warner Bros.}

Madonna - Who's That Girl (Original Motion Picture Soundtrack) (1987) {Sire/Warner Bros.}
EAC Rip | FLAC with CUE and LOG | scans | 270 mb
MP3 CBR 320 kbps | RAR | 88 mb
Genre: soundtrack, pop, dance pop, Latin pop

Who's That Girl is the 1987 soundtrack to the film starring Madonna but is it a Madonna soundtrack album? No. This, featuring four Madonna songs, was released by Sire/Warner Bros. Records.

Madonna - Who's That Girl (Original Motion Picture Soundtrack) (1987) {Sire/Warner Bros.}

01. Madonna - Who's That Girl (3:59)
02. Madonna - Causing A Commotion (4:21)
03. Madonna - The Look Of Love (4:04)
04. Duncan Fauré - 24 Hours (3:39)
05. Club Nouveau - Step By Step (4:45)
06. Michael Davidson - Turn It Up (3:57)
07. Scritti Politti - Best Thing Ever (3:51)
08. Madonna - Can't Stop (4:46)
09. Coati Mundi - El Coco Loco (So So Bad) (6:22)

Exact Audio Copy V0.99 prebeta 3 from 28. July 2007

EAC extraction logfile from 2. November 2007, 23:19

Madonna / Who's That Girl (Original Motion Picture Soundtrack)

Used drive : PLEXTOR CD-ROM PX-40TS Adapter: 2 ID: 3

Read mode : Secure
Utilize accurate stream : Yes
Defeat audio cache : Yes
Make use of C2 pointers : No

Read offset correction : 676
Overread into Lead-In and Lead-Out : No
Fill up missing offset samples with silence : Yes
Delete leading and trailing silent blocks : No
Null samples used in CRC calculations : Yes
Used interface : Installed external ASPI interface

Used output format : Internal WAV Routines
Sample format : 44.100 Hz; 16 Bit; Stereo

TOC of the extracted CD

Track | Start | Length | Start sector | End sector
––––––––––––––––––––––––––––-
1 | 0:00.00 | 4:00.00 | 0 | 17999
2 | 4:00.00 | 4:21.45 | 18000 | 37619
3 | 8:21.45 | 4:04.20 | 37620 | 55939
4 | 12:25.65 | 3:39.70 | 55940 | 72434
5 | 16:05.60 | 4:45.55 | 72435 | 93864
6 | 20:51.40 | 3:57.55 | 93865 | 111694
7 | 24:49.20 | 3:51.25 | 111695 | 129044
8 | 28:40.45 | 4:46.17 | 129045 | 150511
9 | 33:26.62 | 6:23.00 | 150512 | 179236

Range status and errors

Selected range

Filename C:\FLAC\Madonna - Who's That Girl (Original Motion Picture Soundtrack) (1987) [FLAC] {Sire, Warner Bros.}\Madonna - Who's That Girl (Original Motion Picture Soundtrack).wav

Peak level 98.4 %
Range quality 100.0 %
Copy CRC 74097FDF
Copy OK

No errors occurred

End of status report


Madonna - Who's That Girl (Original Motion Picture Soundtrack) (1987) {Sire/Warner Bros.}


Thank you to the original uploader.