Subcategories
Tags
Language
Tags

M|A|R|R|S - Pump Up The Volume (US CD5) (1987) {4th & B'Way/Island} **[RE-UP]**

Posted By: TestTickles
M|A|R|R|S - Pump Up The Volume (US CD5) (1987) {4th & B'Way/Island} **[RE-UP]**

M|A|R|R|S - Pump Up The Volume (US CD5) (1987) {4th & B'Way/Island}
EAC Rip | FLAC with CUE and log | scans | 160 mb
MP3 CBR 320kbps | RAR | 63 mb
Genre: electronica, sample-based, dance, club, hip-hop

The biggest single in M|A|R|R|S' career was the only single in their career, the highly influential "Pump Up The Volume". People had never quite heard of a song full of samples from other songs, even though the collage-style of production was something made famous by Double Dee & Steinski and other DJ's and producers. This disc is the U.S. version on 4th & B'Way/Island with mixes that may be different from the UK disc.
M|A|R|R|S was a one-off collaboration between members of two UK experimental pop hotshots – A.R. Kane (Rough Trade) and Colourbox (4AD). (The band's name represents the initials of its members.) "Pump Up The Volume" was, at its heart, a tape-collage of various other pioneering dance hits of the era: it liberally sampled likeminded tracks by Stock/Aitken/Waterman and Coldcut, stirring up mild controversy in the process. The track (a substantial success in the US as well) has since come to prominence as a genre-defining movie-soundtrack favorite, most recently in the dark '80s satire "American Psycho."

M|A|R|R|S - Pump Up The Volume (US CD5) (1987) {4th & B'Way/Island} **[RE-UP]**

1. Pump Up The Volume (7:10)
2. Pump Up The Volume (Bonus Beat) (4:49)
3. Pump Up The Volume (Instrumental) (5:04)
4. Pump Up The Volume (Radio Edit) (4:06)
5. Anitina (4:20)

Music: Martyn & Steve Young
Guitar: A.R. Kane
Scratching: C.J. MacKintosh
Samples: John Fryer
Scratching/Drop-Ins: Dave Dorrell
Additional rapping (tracks 1 & 4): Emix

Producer: M. Young
Recorded at Blackwing
Mixed at All Electric
Engineer: Lincoln Fong

EAC extraction logfile from 28. September 2007, 15:06 for CD
M|A|R|R|S / Pump Up The Volume (US CD5)

Used drive : LITE-ON DVDRW SOHW-1633S Adapter: 0 ID: 0
Read mode : Secure with NO C2, accurate stream, disable cache
Read offset correction : 12
Overread into Lead-In and Lead-Out : No

Used output format : Internal WAV Routines
44.100 Hz; 16 Bit; Stereo

Other options :
Fill up missing offset samples with silence : Yes
Delete leading and trailing silent blocks : No
Installed external ASPI interface


Track 1
Filename C:\cuntfist\FLAC\MARRS - Pump Up The Volume (US CD5) (1987) [FLAC] {4th & B'Way, Island}\01 - Pump Up The Volume.wav

Pre-gap length 0:00:02.00

Peak level 100.0 %
Track quality 100.0 %
Test CRC 0D659709
Copy CRC 0D659709
Copy OK

Track 2
Filename C:\cuntfist\FLAC\MARRS - Pump Up The Volume (US CD5) (1987) [FLAC] {4th & B'Way, Island}\02 - Pump Up The Volume (Bonus Beat).wav

Pre-gap length 0:00:02.62

Peak level 100.0 %
Track quality 100.0 %
Test CRC DE211A21
Copy CRC DE211A21
Copy OK

Track 3
Filename C:\cuntfist\FLAC\MARRS - Pump Up The Volume (US CD5) (1987) [FLAC] {4th & B'Way, Island}\03 - Pump Up The Volume (Instrumental).wav

Pre-gap length 0:00:02.80

Peak level 99.9 %
Track quality 100.0 %
Test CRC 48456B16
Copy CRC 48456B16
Copy OK

Track 4
Filename C:\cuntfist\FLAC\MARRS - Pump Up The Volume (US CD5) (1987) [FLAC] {4th & B'Way, Island}\04 - Pump Up The Volume (Radio Edit).wav

Pre-gap length 0:00:02.29

Peak level 92.1 %
Track quality 100.0 %
Test CRC 6C2F57F7
Copy CRC 6C2F57F7
Copy OK

Track 5
Filename C:\cuntfist\FLAC\MARRS - Pump Up The Volume (US CD5) (1987) [FLAC] {4th & B'Way, Island}\05 - Anitina.wav

Pre-gap length 0:00:03.09

Peak level 70.2 %
Track quality 100.0 %
Test CRC 0FB14B5E
Copy CRC 0FB14B5E
Copy OK

No errors occured


End of status report


M|A|R|R|S - Pump Up The Volume (US CD5) (1987) {4th & B'Way/Island} **[RE-UP]**