Subcategories

MC Paul Barman - It's Very Stimulating (EP) (2000) {Wordsound} **[RE-UP]**

Posted By: TestTickles
MC Paul Barman - It's Very Stimulating (EP) (2000) {Wordsound} **[RE-UP]**

MC Paul Barman - It's Very Stimulating (EP) (2000) {Wordsound}
EAC Rip | FLAC with CUE and log | scans | 114 mb
MP3 CBR 320kbps | RAR | 44 mb
Genre: hip-hop, rap

Wordsound Records released the debut extended play by MC Paul Barman called It's Very Stimulating. This EP is notable for being produced by Prince Paul. 2000 is the copyright on the CD.

MC Paul Barman - It's Very Stimulating (EP) (2000) {Wordsound} **[RE-UP]**

1. An Introduction (1:34)
2. The Joy Of Your World (3:31)
3. School Anthem (2:40)
4. Salvation Barmy (2:17)
5. I'm Fricking Awesome (2:56)
6. MTV Get Off The Air, Part 2 (5:07)

Track 3 featuring Mr. Len
Track 4 featuring Black Italian AKA The Popmaster
Track 5 featuring DJAV
Track 6 featuring Princess Superstar

Produced and guitar on track 5 by Prince Paul

Exact Audio Copy V1.1 from 23. June 2015

EAC extraction logfile from 21. March 2017, 20:06

MC Paul Barman / It's Very Stimulating (EP)

Used drive : TEAC DVD-ROM DV-28SW Adapter: 1 ID: 0

Read mode : Secure
Utilize accurate stream : Yes
Defeat audio cache : Yes
Make use of C2 pointers : No

Read offset correction : 6
Overread into Lead-In and Lead-Out : No
Fill up missing offset samples with silence : Yes
Delete leading and trailing silent blocks : No
Null samples used in CRC calculations : Yes
Used interface : Native Win32 interface for Win NT & 2000
Gap handling : Appended to previous track

Used output format : Internal WAV Routines
Sample format : 44.100 Hz; 16 Bit; Stereo


TOC of the extracted CD

Track | Start | Length | Start sector | End sector
––––––––––––––––––––––––––––-
1 | 0:00.00 | 1:33.67 | 0 | 7041
2 | 1:33.67 | 3:30.64 | 7042 | 22855
3 | 5:04.56 | 2:40.02 | 22856 | 34857
4 | 7:44.58 | 2:16.70 | 34858 | 45127
5 | 10:01.53 | 2:55.61 | 45128 | 58313
6 | 12:57.39 | 5:07.05 | 58314 | 81343


Track 1

Filename C:\My Documents\My FLAC\MC Paul Barman - It's Very Stimulating (EP) (2000) [FLAC] {Wordsound}\01 - An Introduction.wav

Pre-gap length 0:00:02.00

Peak level 98.8 %
Extraction speed 2.2 X
Track quality 100.0 %
Test CRC 67F213ED
Copy CRC 67F213ED
Accurately ripped (confidence 5) [B00C7A55] (AR v2)
Copy OK

Track 2

Filename C:\My Documents\My FLAC\MC Paul Barman - It's Very Stimulating (EP) (2000) [FLAC] {Wordsound}\02 - The Joy Of Your World.wav

Peak level 98.8 %
Extraction speed 2.5 X
Track quality 100.0 %
Test CRC E984C625
Copy CRC E984C625
Accurately ripped (confidence 6) [160AA8BB] (AR v2)
Copy OK

Track 3

Filename C:\My Documents\My FLAC\MC Paul Barman - It's Very Stimulating (EP) (2000) [FLAC] {Wordsound}\03 - Senioritis.wav

Peak level 98.8 %
Extraction speed 1.8 X
Track quality 99.9 %
Test CRC DFEEC279
Copy CRC DFEEC279
Accurately ripped (confidence 5) [FC6139E1] (AR v2)
Copy OK

Track 4

Filename C:\My Documents\My FLAC\MC Paul Barman - It's Very Stimulating (EP) (2000) [FLAC] {Wordsound}\04 - Salvation Barmy.wav

Peak level 98.8 %
Extraction speed 2.4 X
Track quality 100.0 %
Test CRC 128BC1F8
Copy CRC 128BC1F8
Accurately ripped (confidence 6) [FE347012] (AR v2)
Copy OK

Track 5

Filename C:\My Documents\My FLAC\MC Paul Barman - It's Very Stimulating (EP) (2000) [FLAC] {Wordsound}\05 - I'm Fricking Awesome.wav

Peak level 98.8 %
Extraction speed 2.2 X
Track quality 100.0 %
Test CRC 69BDB2D9
Copy CRC 69BDB2D9
Accurately ripped (confidence 6) [BEEA7A07] (AR v2)
Copy OK

Track 6

Filename C:\My Documents\My FLAC\MC Paul Barman - It's Very Stimulating (EP) (2000) [FLAC] {Wordsound}\06 - MTV Get Off The Air, Part 2.wav

Peak level 98.8 %
Extraction speed 3.1 X
Track quality 99.9 %
Test CRC 182D7294
Copy CRC 182D7294
Accurately ripped (confidence 6) [3CEBC317] (AR v2)
Copy OK


All tracks accurately ripped

No errors occurred

End of status report

–– CUETools DB Plugin V2.1.6

[CTDB TOCID: 5mgJvse6ha2CJswxfS.4jzaQ6sA-] found
Submit result: 5mgJvse6ha2CJswxfS.4jzaQ6sA- has been confirmed
Track | CTDB Status
1 | (12/12) Accurately ripped
2 | (12/12) Accurately ripped
3 | (12/12) Accurately ripped
4 | (12/12) Accurately ripped
5 | (12/12) Accurately ripped
6 | (12/12) Accurately ripped


==== Log checksum E8C6B7D86A011683FCADF2A5E479604C5E9BA244375EA0F0F7854F9EA07CB62C ====


MC Paul Barman - It's Very Stimulating (EP) (2000) {Wordsound} **[RE-UP]**