Tags
Language
Tags

Daniele Luppi & Parquet Courts - MILANO (2017)

Posted By: SERTiL
Daniele Luppi & Parquet Courts - MILANO (2017)

Daniele Luppi & Parquet Courts - MILANO (2017)
XLD Rip | FLAC (tracks)+cue, log, artwork | 224 MB
Label: 30th Century Records ‎– 889854886325 | Tracks: 09 | Time: 29:59 min
Indie Rock, Post-Punk, New Wave

MILANO is the new album from Emmy nominated Italian composer, producer and artist, Daniele Luppi, along with New York rock band Parquet Courts.

MILANO is a concept album, complete with songs that are fictionalized stories about misfits, fashionistas, outcasts and junkies in mid-1980s Milan. Daniele teamed up with Parquet Courts and Yeah Yeah Yeah's vocalist, Karen O, to help deliver his vision of an emerging youth culture struggling to be heard amidst the rapid gentrification of old Milan.

The first offering from the album was the track "Soul and Cigarette," a jaunty, springy tune belies its more sinister, saddened backstory of artistic struggle. Andrew Savage of Parquet Courts describes "Soul and Cigarette" as a tribute to Alda Merini, one of Milan and Italy's most renowned poets, yet unfortunately not as heralded internationally. He says, "I was reading her and trying to imagine Milan as she saw and experienced it. Her story is one of great suffering and her verse is often quite painful, an important juxtaposition from the cosmopolitan Milan we associate with luxury and excess."

The second track released from MILANO was "Talisa" featuring Karen O. "Talisa" is a love letter to Talisa Soto, the model and actress who was a dear friend and muse of revered designer Gianni Versace. Celebrated for her model-esque figure and striking beauty, Talisa appeared in numerous Versace ad campaigns at the height of the brand's fabled existence. Talisa's comely face was regularly plastered on billboards across Milan and she was a steady presence on the catwalks during Milan Fashion Week. Says Daniele, "For Talisa's lyrics, Karen and I dreamed up a fantasy photoshoot, a la Antonioni's Blow Up. We imagined a scenario where Talisa is on set in a fantastical couture creation and Gianni himself is the photographer. We wanted to capture the excitement, vibrancy and fast lane life of Milano in the 80s, draped in fashion and models, as cliché as that may seem."

MILANO is the unofficial follow up to Luppi and Danger Mouse's 2011 album Rome, a love letter to classic Italian film scores, with Jack White and Norah Jones.



Tracklist:
1. Soul & Cigarette (03:28)
2. Talisa (02:20)
3. Mount Napoleon (03:26)
4. Flush (04:26)
5. Memphis Blues Again (03:15)
6. Pretty Prizes (03:05)
7. The Golden Ones (02:06)
8. Lanza (02:47)
9. Cafe Flesh (05:05)

X Lossless Decoder version 20170729 (150.3)

XLD extraction logfile from 2017-12-27 14:09:27 +0100

Various Artists / Milano

Used drive : MATSHITA BD-MLT UJ260AF (revision 1.00)
Media type : Pressed CD

Ripper mode : XLD Secure Ripper
Disable audio cache : OK for the drive with a cache less than 1375KiB
Make use of C2 pointers : NO
Read offset correction : 103
Max retry count : 20
Gap status : Analyzed, Appended (except HTOA)

TOC of the extracted CD
Track | Start | Length | Start sector | End sector
––––––––––––––––––––––––––––-
1 | 00:00:00 | 03:28:26 | 0 | 15625
2 | 03:28:26 | 02:20:32 | 15626 | 26157
3 | 05:48:58 | 03:26:26 | 26158 | 41633
4 | 09:15:09 | 04:27:73 | 41634 | 61731
5 | 13:43:07 | 03:15:53 | 61732 | 76409
6 | 16:58:60 | 03:05:55 | 76410 | 90339
7 | 20:04:40 | 02:06:42 | 90340 | 99831
8 | 22:11:07 | 02:47:01 | 99832 | 112357
9 | 24:58:08 | 05:05:22 | 112358 | 135254

AccurateRip Summary
Disc not found in AccurateRip DB.

All Tracks
Album gain : -8.93 dB
Peak : 0.988678
Statistics
Read error : 0
Jitter error (maybe fixed) : 0
Retry sector count : 0
Damaged sector count : 0

Track 01
Filename : /Users/Shared/Rip XLD/Compilations - Milano (2017) [FLAC]/01 - Daniele Luppi & Parquet Courts - Soul And Cigarette.flac
Pre-gap length : 00:02:00

Track gain : -7.25 dB
Peak : 0.988617
CRC32 hash (test run) : 8FAD478C
CRC32 hash : 8FAD478C
CRC32 hash (skip zero) : 9D2364E7
AccurateRip v1 signature : 1D823894
AccurateRip v2 signature : 1A3C21A3
->Track not present in AccurateRip database.
Statistics
Read error : 0
Jitter error (maybe fixed) : 0
Retry sector count : 0
Damaged sector count : 0

Track 02
Filename : /Users/Shared/Rip XLD/Compilations - Milano (2017) [FLAC]/02 - Daniele Luppi & Parquet Courts Feat. Karen O - Talisa.flac

Track gain : -8.98 dB
Peak : 0.988617
CRC32 hash (test run) : F94AF5C5
CRC32 hash : F94AF5C5
CRC32 hash (skip zero) : F8212CFD
AccurateRip v1 signature : BF5774C0
AccurateRip v2 signature : E51C618A
->Track not present in AccurateRip database.
Statistics
Read error : 0
Jitter error (maybe fixed) : 0
Retry sector count : 0
Damaged sector count : 0

Track 03
Filename : /Users/Shared/Rip XLD/Compilations - Milano (2017) [FLAC]/03 - Daniele Luppi & Parquet Courts - Mount Napoleon.flac

Track gain : -9.17 dB
Peak : 0.988647
CRC32 hash (test run) : B7BD9563
CRC32 hash : B7BD9563
CRC32 hash (skip zero) : 230AA2FF
AccurateRip v1 signature : 0229EEF3
AccurateRip v2 signature : BC3D9E0C
->Track not present in AccurateRip database.
Statistics
Read error : 0
Jitter error (maybe fixed) : 0
Retry sector count : 0
Damaged sector count : 0

Track 04
Filename : /Users/Shared/Rip XLD/Compilations - Milano (2017) [FLAC]/04 - Daniele Luppi & Parquet Courts Feat. Karen O - Flush.flac

Track gain : -7.59 dB
Peak : 0.988678
CRC32 hash (test run) : 9557E01B
CRC32 hash : 9557E01B
CRC32 hash (skip zero) : 50C498DD
AccurateRip v1 signature : CC6897C3
AccurateRip v2 signature : 78A314AB
->Track not present in AccurateRip database.
Statistics
Read error : 0
Jitter error (maybe fixed) : 0
Retry sector count : 0
Damaged sector count : 0

Track 05
Filename : /Users/Shared/Rip XLD/Compilations - Milano (2017) [FLAC]/05 - Daniele Luppi & Parquet Courts - Memphis Blues Again.flac
Pre-gap length : 00:01:33

Track gain : -9.12 dB
Peak : 0.988647
CRC32 hash (test run) : BD9FC736
CRC32 hash : BD9FC736
CRC32 hash (skip zero) : F8EE3897
AccurateRip v1 signature : 6DFE162C
AccurateRip v2 signature : B82CA08E
->Track not present in AccurateRip database.
Statistics
Read error : 0
Jitter error (maybe fixed) : 0
Retry sector count : 0
Damaged sector count : 0

Track 06
Filename : /Users/Shared/Rip XLD/Compilations - Milano (2017) [FLAC]/06 - Daniele Luppi & Parquet Courts Feat. Karen O - Pretty Prizes.flac

Track gain : -9.68 dB
Peak : 0.988647
CRC32 hash (test run) : 2EC6F477
CRC32 hash : 2EC6F477
CRC32 hash (skip zero) : D5CDA1A3
AccurateRip v1 signature : 6010421C
AccurateRip v2 signature : B504DD0A
->Track not present in AccurateRip database.
Statistics
Read error : 0
Jitter error (maybe fixed) : 0
Retry sector count : 0
Damaged sector count : 0

Track 07
Filename : /Users/Shared/Rip XLD/Compilations - Milano (2017) [FLAC]/07 - Daniele Luppi & Parquet Courts Feat. Karen O - The Golden Ones.flac

Track gain : -8.90 dB
Peak : 0.988617
CRC32 hash (test run) : 0836C517
CRC32 hash : 0836C517
CRC32 hash (skip zero) : 98F1CEEE
AccurateRip v1 signature : 6BF4B3F6
AccurateRip v2 signature : 8660F3BF
->Track not present in AccurateRip database.
Statistics
Read error : 0
Jitter error (maybe fixed) : 0
Retry sector count : 0
Damaged sector count : 0

Track 08
Filename : /Users/Shared/Rip XLD/Compilations - Milano (2017) [FLAC]/08 - Daniele Luppi & Parquet Courts - Lanza.flac

Track gain : -8.11 dB
Peak : 0.988586
CRC32 hash (test run) : 8DCBB15F
CRC32 hash : 8DCBB15F
CRC32 hash (skip zero) : 93E47201
AccurateRip v1 signature : BE0938B5
AccurateRip v2 signature : 6436F7C7
->Track not present in AccurateRip database.
Statistics
Read error : 0
Jitter error (maybe fixed) : 0
Retry sector count : 0
Damaged sector count : 0

Track 09
Filename : /Users/Shared/Rip XLD/Compilations - Milano (2017) [FLAC]/09 - Daniele Luppi & Parquet Courts - Café Flesh.flac

Track gain : -9.32 dB
Peak : 0.988617
CRC32 hash (test run) : EF85BD4A
CRC32 hash : EF85BD4A
CRC32 hash (skip zero) : 81BA3369
AccurateRip v1 signature : 6F73F466
AccurateRip v2 signature : F98F23A0
->Track not present in AccurateRip database.
Statistics
Read error : 0
Jitter error (maybe fixed) : 0
Retry sector count : 0
Damaged sector count : 0

No errors occurred

End of status report

––-BEGIN XLD SIGNATURE––-
8wxjw_UvRQbUvQ_jqRbFy7hliES8b1LDATUqfMcQLUYa0WGf3dNGgeW6seYzc_QfO1Hfjm_5D5fb8TRdXxD.HxmgZpbd5itOiwjvwFq
––-END XLD SIGNATURE––-


Daniele Luppi & Parquet Courts - MILANO (2017)


Thanks to the Original customer.