Tags
Language
Tags

Madonna - Erotica (1992)

Posted By: v3122
Madonna - Erotica (1992)

Madonna - Erotica (1992)
EAC | Flac(Image) + Cue + Log & MP3 CBR 320Kbps
Maverick / Sire Records, 9362-45031-2 | ~ 527 or 178 Mb | Artwork(jpg) -> 46 Mb
Pop / Electronic / Dance

Erotica is the fifth studio album by American recording artist Madonna, released on October 20, 1992 by Maverick and Sire Records. The album was released simultaneously with Madonna's first book publication Sex, a coffee table book containing explicit photographs featuring the singer, and marked her first release under Maverick, her own multimedia entertainment company. Erotica is a concept album about sex and romance, incorporating her alter ego Mistress Dita, inspired by actress Dita Parlo. Some of its songs also take on a more confessional tone, influenced by the loss of Madonna's two close friends to AIDS.

Madonna recorded the album in New York City with Shep Pettibone and André Betts while she was working on her book and film projects. She began creating the album's demos with Pettibone in his apartment in October 1991, and wrote the melodies and lyrics on top of the basic music which Pettibone produced in the style of his remixes. During the sessions, they had problems during sequencing, and, as a result, Pettibone kept trying to move development as fast as possible as he did not want Madonna to lose interest in the music. According to him, Madonna's compositions were serious and intense, directing the creative direction of the songs into a deeply personal territory.

Erotica received generally favorable reviews from critics, who regarded it as one of Madonna's most adventurous albums and praised her comments on taboos and AIDS. Commercially, the album was less successful than Madonna's previous albums, peaking at number 2 on the US Billboard 200, becoming her first studio album not to top the chart since her debut. Internationally, it topped the charts in Australia, Finland, and France, and peaked within the top five of several other countries such as Canada, Germany, Japan, New Zealand, and the United Kingdom. Erotica was later certified double-platinum by the Recording Industry Association of America and has sold more than six million copies worldwide.

Six singles were released from the album, including the title track and "Deeper and Deeper", both of which reached the top ten of the US Billboard Hot 100. The album was supported by The Girlie Show World Tour, which visited cities in Europe, North America, Latin America, Asia, and Australia in 1993. Overlooked at the time of its release due to the backlash surrounding the Sex book, Erotica has been retrospectively considered as one of "The 100 Best Albums of the 1990s" by Slant Magazine and one of the most revolutionary albums of all time by the Rock and Roll Hall of Fame. Many critics noted the influence of the album on the works of other female artists from Janet Jackson to Beyoncé…

~ wiki
Madonna - Erotica (1992):

Madonna - Erotica (1992)

Tracklist:

01. Erotica (5:19)
02. Fever (5:01)
03. Bye Bye Baby (3:56)
04. Deeper And Deeper (5:34)
05. Where Life Begins (5:58)
06. Bad Girl (5:23)
07. Waiting (5:47)
08. Thief Of Hearts (4:51)
09. Words (5:56)
10. Rain (5:25)
11. Why's It So Hard (5:23)
12. In This Life (6:23)
13. Did You Do It? (4:54)
14. Secret Garden (5:32)

Exact Audio Copy V0.99 prebeta 3 from 28. July 2007

EAC extraction logfile from 10. January 2008, 15:47

Madonna / Erotica

Used drive : Optiarc DVD RW AD-5170A Adapter: 1 ID: 0

Read mode : Secure
Utilize accurate stream : Yes
Defeat audio cache : Yes
Make use of C2 pointers : No

Read offset correction : 48
Overread into Lead-In and Lead-Out : No
Fill up missing offset samples with silence : Yes
Delete leading and trailing silent blocks : No
Null samples used in CRC calculations : Yes
Used interface : Installed external ASPI interface

Used output format : Internal WAV Routines
Sample format : 44.100 Hz; 16 Bit; Stereo


TOC of the extracted CD

Track | Start | Length | Start sector | End sector
––––––––––––––––––––––––––––-
1 | 0:00.00 | 5:19.30 | 0 | 23954
2 | 5:19.30 | 5:00.60 | 23955 | 46514
3 | 10:20.15 | 3:56.17 | 46515 | 64231
4 | 14:16.32 | 5:33.48 | 64232 | 89254
5 | 19:50.05 | 5:57.47 | 89255 | 116076
6 | 25:47.52 | 5:23.23 | 116077 | 140324
7 | 31:11.00 | 5:46.60 | 140325 | 166334
8 | 36:57.60 | 4:51.27 | 166335 | 188186
9 | 41:49.12 | 5:56.00 | 188187 | 214886
10 | 47:45.12 | 5:24.48 | 214887 | 239234
11 | 53:09.60 | 5:23.32 | 239235 | 263491
12 | 58:33.17 | 6:23.03 | 263492 | 292219
13 | 64:56.20 | 4:54.17 | 292220 | 314286
14 | 69:50.37 | 5:32.13 | 314287 | 339199


Range status and errors

Selected range

Filename D:\rips\Madonna - Erotica.wav

Peak level 99.7 %
Range quality 100.0 %
Copy CRC 18FCF6BA
Copy OK

No errors occurred


AccurateRip summary

Track 1 accurately ripped (confidence 15) [2E316513]
Track 2 accurately ripped (confidence 15) [0F119876]
Track 3 accurately ripped (confidence 15) [3905322A]
Track 4 accurately ripped (confidence 15) [7DF73A08]
Track 5 accurately ripped (confidence 14) [15923BA1]
Track 6 accurately ripped (confidence 15) [B463D585]
Track 7 accurately ripped (confidence 15) [107DF931]
Track 8 accurately ripped (confidence 14) [1DB7050E]
Track 9 accurately ripped (confidence 14) [5EFE3762]
Track 10 accurately ripped (confidence 14) [F1716364]
Track 11 accurately ripped (confidence 13) [F066FCD9]
Track 12 accurately ripped (confidence 14) [6DC673DB]
Track 13 accurately ripped (confidence 14) [EA24F6FF]
Track 14 accurately ripped (confidence 8) [DB751FD9]

All tracks accurately ripped

End of status report


[CUETools log; Date: 24.03.2019 9:31:48; Version: 2.1.4]
[AccurateRip ID: 00261e9a-01994954-d011aa0e] found.
Track [ CRC | V2 ] Status
01 [2e316513|71511e92] (084+087/841) Accurately ripped
02 [0f119876|fd412c97] (084+087/843) Accurately ripped
03 [3905322a|4a799581] (088+089/849) Accurately ripped
04 [7df73a08|1a50ccc3] (085+089/847) Accurately ripped
05 [15923ba1|d9b7385c] (084+090/844) Accurately ripped
06 [b463d585|fb2d3144] (084+087/845) Accurately ripped
07 [107df931|845f53ad] (085+088/845) Accurately ripped
08 [1db7050e|2666604a] (088+088/847) Accurately ripped
09 [5efe3762|5433d55e] (085+089/845) Accurately ripped
10 [f1716364|23e85f45] (087+088/847) Accurately ripped
11 [f066fcd9|fb4a9a05] (085+089/846) Accurately ripped
12 [6dc673db|2b803140] (085+087/841) Accurately ripped
13 [ea24f6ff|98a4b064] (082+085/832) Accurately ripped
14 [db751fd9|33c25d70] (077+087/831) Accurately ripped
Offsetted by -248:
01 [10ce71cb] (200/841) Accurately ripped
02 [980619fb] (200/843) Accurately ripped
03 [a0871575] (200/849) Accurately ripped
04 [563b9f78] (200/847) Accurately ripped
05 [c9b161ed] (200/844) Accurately ripped
06 [b2871b33] (200/845) Accurately ripped
07 [1cd3241b] (200/845) Accurately ripped
08 [f46c369c] (200/847) Accurately ripped
09 [be42416c] (200/845) Accurately ripped
10 [1637dba8] (200/847) Accurately ripped
11 [cb40bd75] (200/846) Accurately ripped
12 [173ec7b2] (200/841) Accurately ripped
13 [6313cd9a] (200/832) Accurately ripped
14 [7eeb9c77] (200/831) Accurately ripped
Offsetted by -98:
01 [bf7bd785] (003/841) Accurately ripped
02 [fd43f7b4] (003/843) Accurately ripped
03 [5ffbaff8] (003/849) Accurately ripped
04 [dfcbaf7d] (003/847) Accurately ripped
05 [2ded08ac] (003/844) Accurately ripped
06 [7db0c723] (003/845) Accurately ripped
07 [b5c7c072] (003/845) Accurately ripped
08 [52802f1d] (003/847) Accurately ripped
09 [31ff4234] (003/845) Accurately ripped
10 [03378aea] (003/847) Accurately ripped
11 [b1cd9b7f] (003/846) Accurately ripped
12 [2438eb92] (003/841) Accurately ripped
13 [c22f162d] (003/832) Accurately ripped
14 [e3de3b18] (002/831) Accurately ripped
Offsetted by 42:
01 [a6c85899] (009/841) Accurately ripped
02 [f2118cd8] (009/843) Accurately ripped
03 [a34bfb8c] (009/849) Accurately ripped
04 [fab12c72] (009/847) Accurately ripped
05 [30bda5ad] (009/844) Accurately ripped
06 [e35441c7] (009/845) Accurately ripped
07 [de23d10f] (009/845) Accurately ripped
08 [4b01bfa0] (009/847) Accurately ripped
09 [5043c4b2] (009/845) Accurately ripped
10 [f7953ed3] (009/847) Accurately ripped
11 [0cef698e] (009/846) Accurately ripped
12 [9f94784e] (009/841) Accurately ripped
13 [1b4a34da] (009/832) Accurately ripped
14 [0bd955eb] (009/831) Accurately ripped
Offsetted by 537:
01 [b4048eb2] (007/841) Accurately ripped
02 [12a2aac9] (007/843) Accurately ripped
03 [8b1d26a1] (007/849) Accurately ripped
04 [e745a14d] (007/847) Accurately ripped
05 [869bc451] (007/844) Accurately ripped
06 [ab188480] (007/845) Accurately ripped
07 [64d13b7d] (007/845) Accurately ripped
08 [118dcbcf] (007/847) Accurately ripped
09 [818a07f5] (007/845) Accurately ripped
10 [6729897e] (007/847) Accurately ripped
11 [0e1261e9] (007/846) Accurately ripped
12 [94b1e1bc] (007/841) Accurately ripped
13 [6cc34b02] (007/832) Accurately ripped
14 [5a4195c1] (008/831) Accurately ripped
Offsetted by -1402:
01 [ca20f95d] (002/841) Accurately ripped
02 [3ab38849] (002/843) Accurately ripped
03 [fba87e73] (002/849) Accurately ripped
04 [128065d3] (002/847) Accurately ripped
05 [bbcf5dc7] (002/844) Accurately ripped
06 [029a465a] (002/845) Accurately ripped
07 [687f72f1] (002/845) Accurately ripped
08 [d1e14f2c] (002/847) Accurately ripped
09 [da41a586] (002/845) Accurately ripped
10 [2d819c97] (002/847) Accurately ripped
11 [82666b1e] (002/846) Accurately ripped
12 [e391488d] (002/841) Accurately ripped
13 [b9e6d266] (000/832) No match (V2 was not tested)
14 [6583028f] (000/831) No match
Offsetted by -706:
01 [9878bce5] (000/841) No match (V2 was not tested)
02 [1c85e48e] (000/843) No match (V2 was not tested)
03 [a05ac8de] (000/849) No match (V2 was not tested)
04 [a14c423d] (000/847) No match (V2 was not tested)
05 [4049f4f4] (000/844) No match (V2 was not tested)
06 [f8510b7f] (000/845) No match (V2 was not tested)
07 [9153d1b6] (000/845) No match (V2 was not tested)
08 [6d8a10b1] (000/847) No match (V2 was not tested)
09 [792a23cc] (000/845) No match (V2 was not tested)
10 [629690cd] (000/847) No match (V2 was not tested)
11 [38757c80] (000/846) No match (V2 was not tested)
12 [6977002e] (000/841) No match (V2 was not tested)
13 [b367f914] (000/832) No match (V2 was not tested)
14 [6fa88b8d] (000/831) No match (V2 was not tested)
Offsetted by -700:
01 [a9b2dfaf] (008/841) Accurately ripped
02 [5d30b398] (007/843) Accurately ripped
03 [a2d07df0] (008/849) Accurately ripped
04 [9a44f48b] (009/847) Accurately ripped
05 [b0e30db6] (009/844) Accurately ripped
06 [5c7f81e6] (008/845) Accurately ripped
07 [ccb31d8b] (008/845) Accurately ripped
08 [675ab18a] (008/847) Accurately ripped
09 [8c5b0c8f] (008/845) Accurately ripped
10 [1b32f644] (008/847) Accurately ripped
11 [73828e10] (000/846) No match (V2 was not tested)
12 [87950dcf] (009/841) Accurately ripped
13 [d4e4eee3] (008/832) Accurately ripped
14 [0586bc22] (000/831) No match (V2 was not tested)
Offsetted by -694:
01 [baed0279] (000/841) No match (V2 was not tested)
02 [737dedce] (000/843) No match (V2 was not tested)
03 [a36e3156] (000/849) No match (V2 was not tested)
04 [1b7413a9] (000/847) No match (V2 was not tested)
05 [d9acae26] (000/844) No match (V2 was not tested)
06 [d6ed090a] (000/845) No match (V2 was not tested)
07 [68d22707] (000/845) No match (V2 was not tested)
08 [9d7a42c7] (000/847) No match (V2 was not tested)
09 [9f7ef578] (000/845) No match (V2 was not tested)
10 [5cd48a20] (000/847) No match (V2 was not tested)
11 [8d75bec2] (000/846) No match
12 [8afc532b] (000/841) No match
13 [ee842855] (000/832) No match
14 [9e40efda] (000/831) No match
Offsetted by -622:
01 [89a6a3f1] (019/841) Accurately ripped
02 [f58668db] (018/843) Accurately ripped
03 [08a20d19] (020/849) Accurately ripped
04 [5ad00856] (020/847) Accurately ripped
05 [d4d0c78e] (019/844) Accurately ripped
06 [8931615c] (020/845) Accurately ripped
07 [dad7f79e] (019/845) Accurately ripped
08 [e7a9729f] (019/847) Accurately ripped
09 [96440b5a] (019/845) Accurately ripped
10 [78b94aed] (020/847) Accurately ripped
11 [b3f44547] (000/846) No match (V2 was not tested)
12 [1a98648e] (019/841) Accurately ripped
13 [212ab725] (019/832) Accurately ripped
14 [b75d3721] (000/831) No match (V2 was not tested)
Offsetted by -616:
01 [9ae0c6bb] (007/841) Accurately ripped
02 [4656b9be] (007/843) Accurately ripped
03 [ee4ba852] (007/849) Accurately ripped
04 [4f5739aa] (007/847) Accurately ripped
05 [70c8c432] (007/844) Accurately ripped
06 [3b5b6535] (007/845) Accurately ripped
07 [9ebdc4bb] (007/845) Accurately ripped
08 [4e738c4e] (007/847) Accurately ripped
09 [ae69fdc9] (007/845) Accurately ripped
10 [5c5cf852] (007/847) Accurately ripped
11 [ccc6148d] (000/846) No match (V2 was not tested)
12 [b5465726] (007/841) Accurately ripped
13 [5aae8ce1] (007/832) Accurately ripped
14 [75c28bae] (000/831) No match (V2 was not tested)
Offsetted by -254:
01 [ff944f01] (000/841) No match (V2 was not tested)
02 [4e868dd1] (002/843) Accurately ripped
03 [1d86e103] (002/849) Accurately ripped
04 [73db2c64] (002/847) Accurately ripped
05 [0c528566] (000/844) No match (V2 was not tested)
06 [e275e7aa] (002/845) Accurately ripped
07 [8f890ed5] (002/845) Accurately ripped
08 [21123982] (002/847) Accurately ripped
09 [7d301d38] (002/845) Accurately ripped
10 [d3608491] (002/847) Accurately ripped
11 [8d206e60] (002/846) Accurately ripped
12 [edadad79] (000/841) No match (V2 was not tested)
13 [73f29b05] (000/832) No match (V2 was not tested)
14 [50d6d8d9] (000/831) No match (V2 was not tested)
Offsetted by -242:
01 [22089495] (000/841) No match (V2 was not tested)
02 [77a86b4a] (002/843) Accurately ripped
03 [21854842] (000/849) No match (V2 was not tested)
04 [aefd8a6b] (000/847) No match (V2 was not tested)
05 [13f46813] (000/844) No match
06 [cf84a17d] (000/845) No match
07 [c3a5ddbe] (000/845) No match (V2 was not tested)
08 [7f6733a8] (000/847) No match
09 [ff5465f6] (000/845) No match
10 [da10a56b] (000/847) No match (V2 was not tested)
11 [0af70ebe] (000/846) No match (V2 was not tested)
12 [a61555b1] (000/841) No match
13 [346a784c] (000/832) No match (V2 was not tested)
14 [af886232] (000/831) No match

Track Peak [ CRC32 ] [W/O NULL] [ LOG ]
– 99,7 [18FCF6BA] [DA45606B] CRC32
01 99,6 [4599F43E] [33D689DE]
02 99,6 [4E0DB770] [523975DA]
03 99,7 [50E907A6] [081007BA]
04 99,6 [619170F8] [102DDC3B]
05 99,6 [E88E20F5] [D6303693]
06 99,6 [FFE34688] [46008DAE]
07 99,6 [42C3CAED] [8EBA877A]
08 99,6 [23FD1195] [B606B8F3]
09 99,6 [B967DC5D] [4438BAF1]
10 99,6 [EFB1C1D8] [71548AD6]
11 99,6 [62D2BD63] [9D5835A5]
12 99,6 [988634D8] [958B28FB]
13 99,6 [E5D4F8C2] [E0FF891C]
14 99,6 [FC056BF0] [5ED3C8F9]


Madonna - Erotica (1992)

All thanks go to the original releaser

Madonna in my Blog

Download Madonna - Erotica (1992):