Tags
Language
Tags
November 2022
Su Mo Tu We Th Fr Sa
30 31 1 2 3 4 5
6 7 8 9 10 11 12
13 14 15 16 17 18 19
20 21 22 23 24 25 26
27 28 29 30 1 2 3

Madonna - Frozen (1998)

Posted By: v3122
Madonna - Frozen (1998)

Madonna - Frozen (1998)
EAC | Flac(Image) + Cue + Log & MP3 CBR 320Kbps
Maverick/Warner Bros., 9 43993-2 | ~ 202 or 75 Mb | Scans(png) -> 106 Mb
Pop / Electronic / Dance

"Frozen" is a song by American singer Madonna from her seventh studio album Ray of Light (1998). It was released as the lead single from the album on February 23, 1998, by Maverick Records. The song was also included on the compilation albums GHV2 (2001) and Celebration (2009). "Frozen" was written by Madonna and Patrick Leonard, and it was produced in collaboration with William Orbit. A mid-tempo electronica ballad, "Frozen" talks about a cold and emotionless human being. In 2005, a judge in Belgium ruled that "Frozen" was plagiarized from a song by Salvatore Acquaviva, and it was banned from the region. This ruling was overturned in 2014, lifting the Belgium ban on the song.

"Frozen" received acclaim from music critics, some of whom deemed it an album standout. It was described as being a masterpiece, and its melodic beat and sound were defined as "cinematic". The song was a worldwide chart success, peaking at number two on the US Billboard Hot 100, becoming Madonna's sixth number-two single and the artist with most number-two hits in the history of that chart, while it reached number one on the Hot Dance Club Play chart. It ultimately peaked at number one in the United Kingdom, Italy, Spain and Finland, and also within the top-five in other countries, such as Australia, Italy, Sweden and Switzerland.

The accompanying music video for "Frozen" was directed by Chris Cunningham in a desert in California, portraying Madonna as an ethereal, witchy, melancholy persona, shapeshifting into a flock of birds and a black dog. The music video received a MTV Video Music Award for "Best Special Effects" in 1998. To promote Ray of Light, the singer performed the song in several occasions including on Wetten dass..?. Additionally, it was included in three of Madonna's concert tours. "Frozen" has been covered by a number of artists, such as Talisman and Thy Disease…

~ wiki
Madonna - Frozen (1998)


Madonna - Frozen (1998):

Madonna - Frozen (1998)

Tracklist:

01. Album Version [0:06:15.30]
02. Stereo MC's Remix [0:05:49.13]
03. Extended Club Mix [0:11:21.20]
04. Meltdown Mix [0:08:09.72]

Exact Audio Copy V1.3 from 2. September 2016

EAC extraction logfile from 24. December 2016, 1:41

Madonna / Frozen

Used drive : PLEXTOR DVDR PX-810SA Adapter: 1 ID: 0

Read mode : Secure
Utilize accurate stream : Yes
Defeat audio cache : Yes
Make use of C2 pointers : No

Read offset correction : 48
Overread into Lead-In and Lead-Out : No
Fill up missing offset samples with silence : Yes
Delete leading and trailing silent blocks : No
Null samples used in CRC calculations : Yes
Used interface : Installed external ASPI interface

Used output format : User Defined Encoder
Selected bitrate : 1024 kBit/s
Quality : High
Add ID3 tag : No
Command line compressor : C:\Program Files (x86)\Exact Audio Copy\Flac\flac.exe
Additional command line options : -8 -V -T "Date=%year%" -T "Genre=%genre%" -T "COMMENT=ripped by bvstudio®" %source%


TOC of the extracted CD

Track | Start | Length | Start sector | End sector
––––––––––––––––––––––––––––-
1 | 0:00.32 | 6:15.30 | 32 | 28186
2 | 6:15.62 | 5:49.13 | 28187 | 54374
3 | 12:05.00 | 11:21.20 | 54375 | 105469
4 | 23:26.20 | 8:09.72 | 105470 | 142216


Range status and errors

Selected range

Filename F:\Madonna - Discography\1998 - Frozen (CDM) (1998 - Maverick Recording Company • Warner Bros. Records Inc. - US - 9 43993-2)\Madonna - Frozen.wav

Peak level 99.8 %
Extraction speed 6.2 X
Range quality 100.0 %
Test CRC 7DEA37E0
Copy CRC 7DEA37E0
Copy OK

No errors occurred


AccurateRip summary

Track 1 accurately ripped (confidence 26) [275086F5] (AR v2)
Track 2 accurately ripped (confidence 25) [1DCA1BA1] (AR v2)
Track 3 accurately ripped (confidence 25) [4DFB9547] (AR v2)
Track 4 accurately ripped (confidence 24) [3DF0A695] (AR v2)

All tracks accurately ripped

End of status report

–– CUETools DB Plugin V2.1.6

[CTDB TOCID: .sSSTIDM8HHeuruqQ.sGfBKsxPA-] found
Submit result: .sSSTIDM8HHeuruqQ.sGfBKsxPA- has been confirmed
Track | CTDB Status
1 | (16/17) Accurately ripped
2 | (17/17) Accurately ripped
3 | (17/17) Accurately ripped
4 | (17/17) Accurately ripped


==== Log checksum AC56D2723A88C1DD7EAE22846CB9185AC5D08B6CB35603978D8ADFB90D08DDA6 ====

foobar2000 1.2.9 / Dynamic Range Meter 1.1.1
log date: 2017-01-25 16:56:19

––––––––––––––––––––––––––––––––––––––––
Analyzed: Madonna / Frozen
––––––––––––––––––––––––––––––––––––––––

DR Peak RMS Duration Track
––––––––––––––––––––––––––––––––––––––––
DR9 -0.01 dB -12.50 dB 6:15 01-Album Version
DR7 -0.01 dB -8.58 dB 5:49 02-Stereo MC's Remix
DR6 -0.01 dB -8.36 dB 11:21 03-Extended Club Mix
DR7 -0.01 dB -8.93 dB 8:10 04-Meltdown Mix
––––––––––––––––––––––––––––––––––––––––

Number of tracks: 4
Official DR value: DR7

Samplerate: 44100 Hz
Channels: 2
Bits per sample: 16
Bitrate: 868 kbps
Codec: FLAC

[CUETools log; Date: 25.01.2017 16:53:31; Version: 2.1.4]
Pregap length 00:00:32.
[CTDB TOCID: .sSSTIDM8HHeuruqQ.sGfBKsxPA-] found.
Track | CTDB Status
1 | (17/18) Accurately ripped
2 | (18/18) Accurately ripped
3 | (18/18) Accurately ripped
4 | (18/18) Accurately ripped
[AccurateRip ID: 00050a29-0014a330-30076804] found.
Track [ CRC | V2 ] Status
01 [db721a6c|275086f5] (23+26/49) Accurately ripped
02 [f135238c|1dca1ba1] (23+25/48) Accurately ripped
03 [ae44929c|4dfb9547] (23+25/48) Accurately ripped
04 [c3ad02b2|3df0a695] (24+24/48) Accurately ripped

Track Peak [ CRC32 ] [W/O NULL] [ LOG ]
– 99,8 [7DEA37E0] [19E6565C] CRC32
01 99,8 [67AA3121] [028C56F7]
02 99,8 [63DB139F] [175CD055]
03 99,8 [9F7EE544] [AD91E99C]
04 99,8 [B04A03F9] [6F95A1EB]

Madonna - Frozen (1998)

All thanks go to bvstudio

Madonna in my Blog

Download Madonna - Frozen (1998):