Tags
Language
Tags

Magdalena Prejsnar - Piano Preludes (2009) [Re-Up]

Posted By:
Magdalena Prejsnar - Piano Preludes (2009) [Re-Up]

Magdalena Prejsnar - Piano Preludes (2009)
Henryk Mikolaj Gorecki, Wojciech Kilar, Kazimierz Serocki
Zgmunt Mycielski, Milosz Magin, Krzysztof Knittel, Pawel Mykietyn

EAC | FLAC | Image (Cue&Log) ~ 177 Mb | Scans included
Classical, Contemporary | Label: DUX | # 0699 | Time: 01:01:21

This CD contains seven cycles of piano miniatures which are described as preludes. All of them are by Polish composers and date from the second half of the twentieth century. In stylistic terms, the prelude is a fairly homogenous genre and yet a more thorough analysis makes it possible to notice a rich spectrum of compositional devices and ways of shaping the musical material as well as the means of artistic expression.

A disk of 33 short piano pieces, written by seven different composers over the space of 41 years might seem a daunting prospect yet this is a very enjoyable and fascinating collection of pieces, which makes for very pleasant listening.

Wojciech Kilar’s Three Preludes contain a delightfully malicious Shostakovich-style waltz-cum-gallop, followed by a simple song with chordal accompaniment. The final piece is reminiscent of Gershwin’s Three Preludes, being full of urban clangour. These are very approachable pieces and most entertaining.

Kazimierz Serocki’s Suite of Preludes consists of seven miniatures. The first is motoric, the second bluesy - most unexpected, this - then back to the fierce motor rhythms. Number 4 is a peaceful repetition of broken chords, no.5 a fleeting Chopin-esque rush of notes. The last two display a modern attitude. No.6 insists on a repeated chord breaking the robotic progress of a line of single notes, and the last Prelude starts like the accompaniment to Charles Ives’s song The Swimmer then goes off on its own wayward way. This is a very satisfying composition where the composer really has something to say and he says it with the minimum of fuss and without any padding. Not a note is wasted here and although there isn’t a hint of the composer Serocki was to become - I’m thinking of such pieces as Fantasmagoria for piano and percussion (1971), Ad libitum, five pieces for symphony orchestra (1973/1977) and Pianophonie for piano, electronic transformation of sound and orchestra (1976/1978) - there is enough quirkiness to let you know that here is an important composer trying to find his voice.

After these two works, Zygmunt Mycielski’s Six Preludes seem a backward step. These pieces are charming and even when the music raises its voice it is never in a heated moment. Throughout we have the work of a gentleman, who is intent on not saying the wrong thing in public or putting his foot in his mouth. Perhaps not as musically important as the Kilar or Serocki pieces, these Preludes make a delightful rest before the next composer. He started his career as a major figure of the avant-garde and with his 3rd Symphony, The Symphony of Sorrowful Songs, became the darling of the new music set, thanks to a minimalist Symphony and a meditative masterpiece in the John Tavener mold.

Let’s get one thing clear. Whilst Gorecki’s 3rd Symphony isn’t the towering masterpiece we all thought it was when it appeared, it is still a fine piece of work - and in terms of emotional power it is streets ahead of a work such as The Protecting Veil. What this composer has achieved - both before and after his musical re-birth - is quite astonishing. Here we have the man at the very start of his career, finding his way and having fun. These pieces are small-scale both in playing time and invention, and whilst there’s nothing to suggest that within five years he would write both the delightful double Piano Concerto, Songs of Joy and Rhythm, op.7 (1959/1960) and the arch modernist orchestral work Scontri, op.17 (1960) there are sufficient disquieting moments to make you wonder what might happen next.

Mi?osz Magin’s Five Preludes begin with music which suggests a comedy scene; it is quite funny. What is interesting about these pieces is that they seem to be re-inventing older forms, thus I find more than a nod to Chopin, in an affectionate way, in the slow pieces and an acknowledgement to Szymanowski in the fast ones.

Krzysztof Knittel’s Four Preludes make an interesting set for here is a more modern voice insofar as the composer is writing in a detached manner, keeping a safe distance between himself and his composition. By turns quasi-religious, then Stravinsky bluff, this is a strange brew which is very enjoyable. Pawe? Mykietyn’s Four Preludes is the most recent music on the disk. His language is certainly more modern than any other heard before on this disc. He knows how to suspend time - the first Prelude which plays for a trifle over three minutes seems much bigger - and how to mix the more modern with the jocular - imagine underarm clusters adding to the sense of fun?

This is a recital of modern piano music with a difference - it is enjoyable as well as entertaining and introduces us to a couple of composers whose names are unknown. I expected the disk to be OK, enjoyable but limited due to the number of short pieces involved, but what I found was a mass of fascinating music, very well played and brilliantly recorded. DUX is to be thanked for this disk, for it is a welcome change from so many contemporary piano recitals in that one can actually whistle the tunes and want to play it again. Full marks DUX!

Review by Bob Briggs, MusicWeb International

Magdalena Prejsnar - Piano Preludes (2009) [Re-Up]

Magdalena Prejsnar, piano


rec. January 2009, Witold Lutoslawski Concert Studio of Polish Radio, Warsaw

Tracklist:

Wojciech KILAR (1932-2013)
3 Preludes (1951)
01. I. Allegro molto
02. II. Adagio
03. III. Allegro molto

Kazimierz SEROCKI (1922-1981)
Suite of Preludes (1952)
04. I. Animato
05. II. Affettuoso
06. III. Agitato
07. IV. Teneramente
08. V. Veloce
09. VI. Capriccioso
10. VII. Furioso

Zygmunt MYCIELSKI (1907-1987)
6 Preludes (1954)
11. I. Allegro leggiero
12. II. Adagio
13. III. Allegretto
14. IV. Allegro molto
15. V. Andante cantabile
16. VI. Andante con moto

Henryk Mikołaj GORECKI (1933-2010)
4 Preludes, Op.1 (1955)
17. I. Molto agitato - Cantabile - tempo I
18. II. Lento - recitativo
19. III. Allegro scherzando
20. IV. Molto allegro quasi presto

Miłosz MAGIN (1929-1999)
5 Preludes (1963)
21. I. Allegro
22. II. Allegretto tranquillo
23. III. Allegro agitato
24. IV. Andante
25. V. Prestissimo

Krzysztof KNITTEL (b.1947)
4 Preludes (1983)
26. I. J=72
27. II. J=66
28. III. J=84
29. IV. Rubato

Paweł MYKIETYN (b.1971)
4 Preludes (1992)
30. I. J=Ca.80
31. II. Tranquillo e maestoso
32. III. J=Ca.114
33. IV. Prestissimo possibile


Exact Audio Copy V1.0 beta 1 from 15. November 2010

EAC extraction logfile from 14. September 2012, 21:28

Magdalena Prejsnar / Piano Preludes

Used drive : Optiarc DVD RW AD-7203A Adapter: 4 ID: 1

Read mode : Secure
Utilize accurate stream : Yes
Defeat audio cache : Yes
Make use of C2 pointers : No

Read offset correction : 48
Overread into Lead-In and Lead-Out : No
Fill up missing offset samples with silence : Yes
Delete leading and trailing silent blocks : No
Null samples used in CRC calculations : Yes
Used interface : Native Win32 interface for Win NT & 2000

Used output format : User Defined Encoder
Selected bitrate : 128 kBit/s
Quality : High
Add ID3 tag : No
Command line compressor : C:\Program Files\FLAC\flac.exe
Additional command line options : -T "COMMENT=Ripped by GFox" -8 -V %s


TOC of the extracted CD

Track | Start | Length | Start sector | End sector
––––––––––––––––––––––––––––-
1 | 0:00.00 | 1:27.63 | 0 | 6587
2 | 1:27.63 | 1:58.00 | 6588 | 15437
3 | 3:25.63 | 1:14.60 | 15438 | 21047
4 | 4:40.48 | 1:14.05 | 21048 | 26602
5 | 5:54.53 | 2:37.05 | 26603 | 38382
6 | 8:31.58 | 1:21.00 | 38383 | 44457
7 | 9:52.58 | 2:42.21 | 44458 | 56628
8 | 12:35.04 | 1:15.37 | 56629 | 62290
9 | 13:50.41 | 1:03.52 | 62291 | 67067
10 | 14:54.18 | 1:41.20 | 67068 | 74662
11 | 16:35.38 | 1:25.38 | 74663 | 81075
12 | 18:01.01 | 3:52.62 | 81076 | 98537
13 | 21:53.63 | 1:01.00 | 98538 | 103112
14 | 22:54.63 | 1:31.17 | 103113 | 109954
15 | 24:26.05 | 1:45.22 | 109955 | 117851
16 | 26:11.27 | 1:08.06 | 117852 | 122957
17 | 27:19.33 | 3:04.50 | 122958 | 136807
18 | 30:24.08 | 2:39.53 | 136808 | 148785
19 | 33:03.61 | 0:50.14 | 148786 | 152549
20 | 33:54.00 | 1:22.07 | 152550 | 158706
21 | 35:16.07 | 1:06.09 | 158707 | 163665
22 | 36:22.16 | 2:59.39 | 163666 | 177129
23 | 39:21.55 | 0:52.54 | 177130 | 181083
24 | 40:14.34 | 1:29.28 | 181084 | 187786
25 | 41:43.62 | 1:41.06 | 187787 | 195367
26 | 43:24.68 | 1:40.40 | 195368 | 202907
27 | 45:05.33 | 1:37.05 | 202908 | 210187
28 | 46:42.38 | 1:31.36 | 210188 | 217048
29 | 48:13.74 | 2:08.51 | 217049 | 226699
30 | 50:22.50 | 3:01.11 | 226700 | 240285
31 | 53:23.61 | 1:22.07 | 240286 | 246442
32 | 54:45.68 | 2:45.43 | 246443 | 258860
33 | 57:31.36 | 3:49.63 | 258861 | 276098


Range status and errors

Selected range

Filename D:\EAC\Magdalena Prejsnar - Piano Preludes.wav

Peak level 100.0 %
Extraction speed 0.1 X
Range quality 100.0 %
Test CRC 5E2FEB1E
Copy CRC 5E2FEB1E
Copy OK

No errors occurred


AccurateRip summary

Track 1 accurately ripped (confidence 1) [FF0CE407]
Track 2 accurately ripped (confidence 1) [36D572E5]
Track 3 accurately ripped (confidence 1) [756E3832]
Track 4 accurately ripped (confidence 1) [F8911B62]
Track 5 accurately ripped (confidence 1) [DFA7291B]
Track 6 accurately ripped (confidence 1) [26D207DA]
Track 7 accurately ripped (confidence 1) [E1559718]
Track 8 accurately ripped (confidence 1) [1482A75E]
Track 9 accurately ripped (confidence 1) [F7850D13]
Track 10 accurately ripped (confidence 1) [12BDD05C]
Track 11 accurately ripped (confidence 1) [C6245442]
Track 12 accurately ripped (confidence 1) [202CBFD3]
Track 13 not present in database
Track 14 not present in database
Track 15 not present in database
Track 16 not present in database
Track 17 not present in database
Track 18 not present in database
Track 19 not present in database
Track 20 not present in database
Track 21 not present in database
Track 22 not present in database
Track 23 not present in database
Track 24 not present in database
Track 25 not present in database
Track 26 not present in database
Track 27 not present in database
Track 28 not present in database
Track 29 not present in database
Track 30 not present in database
Track 31 not present in database
Track 32 not present in database
Track 33 not present in database

12 track(s) accurately ripped
21 track(s) not present in the AccurateRip database

Some tracks could not be verified as accurate

End of status report

==== Log checksum 19A6A55CE2AA3F5FF5684B9251088FC4AB7FEE7991DF559F24EED2A2AE177EF6 ====

foobar2000 1.2 / Dynamic Range Meter 1.1.1
log date: 2016-08-11 22:48:52

––––––––––––––––––––––––––––––––––––––––
Analyzed: Magdalena Prejsnar / Piano Preludes
––––––––––––––––––––––––––––––––––––––––

DR Peak RMS Duration Track
––––––––––––––––––––––––––––––––––––––––
DR16 -0.92 dB -22.07 dB 1:28 01-Kilar - 3 Preludes - I. Allegro molto
DR14 -9.67 dB -32.27 dB 1:58 02-Kilar - 3 Preludes - II. Adagio
DR13 0.00 dB -17.94 dB 1:15 03-Kilar - 3 Preludes - III. Allegro molto
DR14 -5.31 dB -24.28 dB 1:14 04-Serocki - Suite of Preludes - I. Animato
DR13 -5.60 dB -25.66 dB 2:37 05-Serocki - Suite of Preludes - II. Affettuoso
DR13 -5.76 dB -23.07 dB 1:21 06-Serocki - Suite of Preludes - III. Agitato
DR15 -17.77 dB -41.66 dB 2:42 07-Serocki - Suite of Preludes - IV. Teneramente
DR11 -9.06 dB -24.65 dB 1:15 08-Serocki - Suite of Preludes - V. Veloce
DR13 -10.85 dB -29.77 dB 1:04 09-Serocki - Suite of Preludes - VI. Capriccioso
DR11 -10.30 dB -25.57 dB 1:41 10-Serocki - Suite of Preludes - VII. Furioso
DR13 -7.90 dB -27.07 dB 1:26 11-Mycielski - 6 Preludes - I. Allegro leggiero
DR17 -4.43 dB -32.17 dB 3:53 12-Mycielski - 6 Preludes - II. Adagio
DR11 -8.02 dB -24.00 dB 1:01 13-Mycielski - 6 Preludes - III. Allegretto
DR12 -1.92 dB -20.64 dB 1:31 14-Mycielski - 6 Preludes - IV. Allegro molto
DR17 -9.74 dB -33.39 dB 1:45 15-Mycielski - 6 Preludes - V. Andante cantabile
DR12 -5.22 dB -23.78 dB 1:08 16-Mycielski - 6 Preludes - VI. Andante con moto
DR12 -5.77 dB -26.86 dB 3:05 17-Gorecki - 4 Preludes, Op.1 - I. Molto agitato - Cantabile - tempo I
DR17 -11.33 dB -37.27 dB 2:40 18-Gorecki - 4 Preludes, Op.1 - II. Lento - recitativo
DR11 -12.92 dB -30.07 dB 0:50 19-Gorecki - 4 Preludes, Op.1 - III. Allegro scherzando
DR14 -7.27 dB -27.13 dB 1:22 20-Gorecki - 4 Preludes, Op.1 - IV. Molto allegro quasi presto
DR12 -7.37 dB -24.14 dB 1:06 21-Magin - 5 Preludes - I. Allegro
DR17 -6.18 dB -31.28 dB 3:00 22-Magin - 5 Preludes - II. Allegretto tranquillo
DR11 -10.42 dB -26.60 dB 0:53 23-Magin - 5 Preludes - III. Allegro agitato
DR11 -10.74 dB -29.30 dB 1:29 24-Magin - 5 Preludes - IV. Andante
DR11 -9.90 dB -25.63 dB 1:41 25-Magin - 5 Preludes - V. Prestissimo
DR12 -3.42 dB -24.35 dB 1:41 26-Knittel - 4 Preludes - I. J=72
DR13 -5.81 dB -26.62 dB 1:37 27-Knittel - 4 Preludes - II. J=66
DR14 -11.49 dB -33.61 dB 1:31 28-Knittel - 4 Preludes - III. J=84
DR12 -7.32 dB -25.48 dB 2:09 29-Knittel - 4 Preludes - IV. Rubato
DR10 -6.80 dB -20.78 dB 3:01 30-Mykietyn - 4 Preludes - I. J=Ca.80
DR13 -7.48 dB -28.37 dB 1:22 31-Mykietyn - 4 Preludes - II. Tranquillo e maestoso
DR11 -4.63 dB -20.02 dB 2:46 32-Mykietyn - 4 Preludes - III. J=Ca.114
DR12 -7.33 dB -25.37 dB 3:50 33-Mykietyn - 4 Preludes - IV. Prestissimo possibile
––––––––––––––––––––––––––––––––––––––––

Number of tracks: 33
Official DR value: DR13

Samplerate: 44100 Hz
Channels: 2
Bits per sample: 16
Bitrate: 355 kbps
Codec: FLAC
================================================================================

Magdalena Prejsnar - Piano Preludes (2009) [Re-Up]

All thanks to original releaser - GFox

More interesting music in My Blog