Tags
Language
Tags
June 2024
Su Mo Tu We Th Fr Sa
26 27 28 29 30 31 1
2 3 4 5 6 7 8
9 10 11 12 13 14 15
16 17 18 19 20 21 22
23 24 25 26 27 28 29
30 1 2 3 4 5 6

Magic Sam's Blues Band - The Late Great Magic Sam [Recorded 1963-1969] (1980) [Reissue 1995]

Posted By: gribovar
Magic Sam's Blues Band - The Late Great Magic Sam [Recorded 1963-1969] (1980) [Reissue 1995]

Magic Sam's Blues Band - The Late Great Magic Sam [Recorded 1963-1969] (1980) [Reissue 1995]
XLD Rip | FLAC (tracks+.cue+log) - 192 MB | MP3 CBR 320 kbps (LAME 3.93) - 79 MB | Covers - 5 MB
Genre: Blues, Chicago Blues | RAR 3% Rec. | Label: Evidence Music (ECD 26070-2)

The ten 1963-1964 sides that make up the majority of this set have sort of fallen through the historical cracks over the years. They didn't deserve such shoddy treatment - Sam didn't record "Back Door Friend" or "Hi-Heel Sneakers" anywhere else, and he's in top shape throughout The Late Great Magic Sam. Two live tracks at the set's close from 1969 don't add much to the overall package.
Tracklist:
01. Hi-Heel Sneakers
02. All Your Love
03. Trying to Make It
04. Call Me If You Need Me
05. Look Out Sam
06. Baby, You Torture My Soul
07. Sometimes
08. Back Door Friend
09. Feelin' Good
10. All Your Fault
11. Looking Good
12. Easy Baby

Total time: 33:39

X Lossless Decoder version 20240310 (157.0)

XLD extraction logfile from 2024-04-01 13:04:43 -0700

Magic Sam's Blues Band / The Late Great Magic Sam

Used drive : ASUS DRW-24B1ST j (revision 1.11)
Media type : Pressed CD

Ripper mode : XLD Secure Ripper
Disable audio cache : OK for the drive with a cache less than 1375KiB
Make use of C2 pointers : NO
Read offset correction : 6
Max retry count : 100
Gap status : Analyzed, Appended (except HTOA)

TOC of the extracted CD
Track | Start | Length | Start sector | End sector
––––––––––––––––––––––––––––-
1 | 00:00:00 | 02:44:27 | 0 | 12326
2 | 02:44:27 | 02:42:65 | 12327 | 24541
3 | 05:27:17 | 02:56:50 | 24542 | 37791
4 | 08:23:67 | 02:10:20 | 37792 | 47561
5 | 10:34:12 | 01:57:48 | 47562 | 56384
6 | 12:31:60 | 03:55:10 | 56385 | 74019
7 | 16:26:70 | 03:33:65 | 74020 | 90059
8 | 20:00:60 | 01:53:70 | 90060 | 98604
9 | 21:54:55 | 03:12:10 | 98605 | 113014
10 | 25:06:65 | 03:02:42 | 113015 | 126706
11 | 28:09:32 | 02:06:53 | 126707 | 136209
12 | 30:16:10 | 03:22:50 | 136210 | 151409

List of alternate offset correction values
# | Absolute | Relative | Confidence
–––––––––––––––––––––
1 | -832 | -838 | 4

AccurateRip Summary (DiscID: 000ec7bb-008a868b-9f07e20c)
Track 01 : OK (v1+v2, confidence 9/13)
Track 02 : OK (v1+v2, confidence 9/11)
Track 03 : OK (v1+v2, confidence 9/11)
Track 04 : OK (v1+v2, confidence 9/11)
Track 05 : OK (v1+v2, confidence 9/11)
Track 06 : OK (v1+v2, confidence 9/11)
Track 07 : OK (v1+v2, confidence 9/11)
Track 08 : OK (v1+v2, confidence 9/11)
Track 09 : OK (v1+v2, confidence 9/11)
Track 10 : OK (v1+v2, confidence 9/11)
Track 11 : OK (v1+v2, confidence 9/13)
Track 12 : OK (v1+v2, confidence 8/12)
->All tracks accurately ripped.

All Tracks
Album gain : -5.64 dB
Peak : 0.988556
Statistics
Read error : 0
Jitter error (maybe fixed) : 0
Retry sector count : 4
Damaged sector count : 0

Track 01
Filename : /Volumes/El Segundo/Rips/Magic Sam's Blues Band - The Late Great Magic Sam (1990) [FLAC]/01 Hi-Heel Sneakers.flac
Pre-gap length : 00:02:00

Track gain : -6.40 dB
Peak : 0.988556
CRC32 hash (test run) : 13C45E5A
CRC32 hash : 13C45E5A
CRC32 hash (skip zero) : 0456DA11
AccurateRip v1 signature : 41C4AC56
AccurateRip v2 signature : E4121CBC
->Accurately ripped (v1+v2, confidence 3+6/13)
Statistics
Read error : 0
Jitter error (maybe fixed) : 0
Retry sector count : 1
Damaged sector count : 0

Track 02
Filename : /Volumes/El Segundo/Rips/Magic Sam's Blues Band - The Late Great Magic Sam (1990) [FLAC]/02 All Your Love.flac
Pre-gap length : 00:01:42

Track gain : -6.64 dB
Peak : 0.988556
CRC32 hash (test run) : 047976E0
CRC32 hash : 047976E0
CRC32 hash (skip zero) : 8DCCA618
AccurateRip v1 signature : E2C7AE6F
AccurateRip v2 signature : 11143CA9
->Accurately ripped (v1+v2, confidence 3+6/11)
Statistics
Read error : 0
Jitter error (maybe fixed) : 0
Retry sector count : 1
Damaged sector count : 0

Track 03
Filename : /Volumes/El Segundo/Rips/Magic Sam's Blues Band - The Late Great Magic Sam (1990) [FLAC]/03 Trying to Make It.flac
Pre-gap length : 00:02:27

Track gain : -5.94 dB
Peak : 0.988556
CRC32 hash (test run) : 3EBA8D76
CRC32 hash : 3EBA8D76
CRC32 hash (skip zero) : 94A3E900
AccurateRip v1 signature : C5EB6232
AccurateRip v2 signature : 05D0D8C7
->Accurately ripped (v1+v2, confidence 3+6/11)
Statistics
Read error : 0
Jitter error (maybe fixed) : 0
Retry sector count : 0
Damaged sector count : 0

Track 04
Filename : /Volumes/El Segundo/Rips/Magic Sam's Blues Band - The Late Great Magic Sam (1990) [FLAC]/04 Call Me If You Need Me.flac
Pre-gap length : 00:01:45

Track gain : -5.17 dB
Peak : 0.988556
CRC32 hash (test run) : 6773C7A3
CRC32 hash : 6773C7A3
CRC32 hash (skip zero) : 4BAAF859
AccurateRip v1 signature : 7A40018E
AccurateRip v2 signature : B05B57AA
->Accurately ripped (v1+v2, confidence 3+6/11)
Statistics
Read error : 0
Jitter error (maybe fixed) : 0
Retry sector count : 0
Damaged sector count : 0

Track 05
Filename : /Volumes/El Segundo/Rips/Magic Sam's Blues Band - The Late Great Magic Sam (1990) [FLAC]/05 Look Out Sam.flac
Pre-gap length : 00:01:45

Track gain : -6.92 dB
Peak : 0.988556
CRC32 hash (test run) : 551610DA
CRC32 hash : 551610DA
CRC32 hash (skip zero) : 18E1364E
AccurateRip v1 signature : 2CD27292
AccurateRip v2 signature : 3AE03BEA
->Accurately ripped (v1+v2, confidence 3+6/11)
Statistics
Read error : 0
Jitter error (maybe fixed) : 0
Retry sector count : 0
Damaged sector count : 0

Track 06
Filename : /Volumes/El Segundo/Rips/Magic Sam's Blues Band - The Late Great Magic Sam (1990) [FLAC]/06 Baby, You Torture My Soul.flac
Pre-gap length : 00:01:43

Track gain : -6.09 dB
Peak : 0.988556
CRC32 hash (test run) : A9E0591C
CRC32 hash : A9E0591C
CRC32 hash (skip zero) : 16F4D912
AccurateRip v1 signature : 1208FF49
AccurateRip v2 signature : 3E254E78
->Accurately ripped (v1+v2, confidence 3+6/11)
Statistics
Read error : 0
Jitter error (maybe fixed) : 0
Retry sector count : 0
Damaged sector count : 0

Track 07
Filename : /Volumes/El Segundo/Rips/Magic Sam's Blues Band - The Late Great Magic Sam (1990) [FLAC]/07 Sometimes.flac
Pre-gap length : 00:01:50

Track gain : -4.97 dB
Peak : 0.988556
CRC32 hash (test run) : 6A517F18
CRC32 hash : 6A517F18
CRC32 hash (skip zero) : BADB587E
AccurateRip v1 signature : 95773EC3
AccurateRip v2 signature : 0DC1172D
->Accurately ripped (v1+v2, confidence 3+6/11)
Statistics
Read error : 0
Jitter error (maybe fixed) : 0
Retry sector count : 0
Damaged sector count : 0

Track 08
Filename : /Volumes/El Segundo/Rips/Magic Sam's Blues Band - The Late Great Magic Sam (1990) [FLAC]/08 Back Door Friend.flac
Pre-gap length : 00:01:43

Track gain : -5.56 dB
Peak : 0.988556
CRC32 hash (test run) : D5F24B9E
CRC32 hash : D5F24B9E
CRC32 hash (skip zero) : 9BB8E972
AccurateRip v1 signature : 463F911E
AccurateRip v2 signature : 215F0FC7
->Accurately ripped (v1+v2, confidence 3+6/11)
Statistics
Read error : 0
Jitter error (maybe fixed) : 0
Retry sector count : 0
Damaged sector count : 0

Track 09
Filename : /Volumes/El Segundo/Rips/Magic Sam's Blues Band - The Late Great Magic Sam (1990) [FLAC]/09 Feelin' Good.flac
Pre-gap length : 00:01:43

Track gain : -4.53 dB
Peak : 0.988556
CRC32 hash (test run) : D5FAB37B
CRC32 hash : D5FAB37B
CRC32 hash (skip zero) : 1442E247
AccurateRip v1 signature : 25BEE6CF
AccurateRip v2 signature : 4D82ECF9
->Accurately ripped (v1+v2, confidence 3+6/11)
Statistics
Read error : 0
Jitter error (maybe fixed) : 0
Retry sector count : 0
Damaged sector count : 0

Track 10
Filename : /Volumes/El Segundo/Rips/Magic Sam's Blues Band - The Late Great Magic Sam (1990) [FLAC]/10 All Your Fault.flac
Pre-gap length : 00:01:43

Track gain : -2.43 dB
Peak : 0.988556
CRC32 hash (test run) : 5FE0B183
CRC32 hash : 5FE0B183
CRC32 hash (skip zero) : AA01FAA3
AccurateRip v1 signature : 94D88852
AccurateRip v2 signature : FDFB87AC
->Accurately ripped (v1+v2, confidence 3+6/11)
Statistics
Read error : 0
Jitter error (maybe fixed) : 0
Retry sector count : 1
Damaged sector count : 0

Track 11
Filename : /Volumes/El Segundo/Rips/Magic Sam's Blues Band - The Late Great Magic Sam (1990) [FLAC]/11 Looking Good.flac
Pre-gap length : 00:01:42

Track gain : -6.30 dB
Peak : 0.988556
CRC32 hash (test run) : D8602C0C
CRC32 hash : D8602C0C
CRC32 hash (skip zero) : BF0B126B
AccurateRip v1 signature : C518A2BB
AccurateRip v2 signature : 1E3E0A6B
->Accurately ripped (v1+v2, confidence 3+6/13)
Statistics
Read error : 0
Jitter error (maybe fixed) : 0
Retry sector count : 0
Damaged sector count : 0

Track 12
Filename : /Volumes/El Segundo/Rips/Magic Sam's Blues Band - The Late Great Magic Sam (1990) [FLAC]/12 Easy Baby.flac
Pre-gap length : 00:01:45

Track gain : -5.57 dB
Peak : 0.988556
CRC32 hash (test run) : 7E50594D
CRC32 hash : 7E50594D
CRC32 hash (skip zero) : 57C2F5DC
AccurateRip v1 signature : 672ACD84
AccurateRip v2 signature : CC6C601F
->Accurately ripped (v1+v2, confidence 3+5/12)
Statistics
Read error : 0
Jitter error (maybe fixed) : 0
Retry sector count : 1
Damaged sector count : 0

No errors occurred

End of status report

––-BEGIN XLD SIGNATURE––-
nJ1.ywHhxXHBH0Y5kIE5hMLXVHxcCfbcE7lO8rxIKZmAtJ50WNMbaoIC_JbMwmityjdLzqke.W_Vwlh_Fiji2Vi6.moHR.yyMo2nyai
––-END XLD SIGNATURE––-

[CUETools log; Date: 26.04.2024 0:46:25; Version: 2.1.4]
[CTDB TOCID: 4_2cL1NC2.ZFekOgXDD.qa2r_.E-] found.
Track | CTDB Status
1 | (11/11) Accurately ripped
2 | (11/11) Accurately ripped
3 | (11/11) Accurately ripped
4 | (11/11) Accurately ripped
5 | (11/11) Accurately ripped
6 | (11/11) Accurately ripped
7 | (11/11) Accurately ripped
8 | (11/11) Accurately ripped
9 | (11/11) Accurately ripped
10 | (11/11) Accurately ripped
11 | (11/11) Accurately ripped
12 | (11/11) Accurately ripped
[AccurateRip ID: 000ec7bb-008a868b-9f07e20c] found.
Track [ CRC | V2 ] Status
01 [41c4ac56|e4121cbc] (03+06/13) Accurately ripped
02 [e2c7ae6f|11143ca9] (03+06/11) Accurately ripped
03 [c5eb6232|05d0d8c7] (03+06/11) Accurately ripped
04 [7a40018e|b05b57aa] (03+06/11) Accurately ripped
05 [2cd27292|3ae03bea] (03+06/11) Accurately ripped
06 [1208ff49|3e254e78] (03+06/11) Accurately ripped
07 [95773ec3|0dc1172d] (03+06/11) Accurately ripped
08 [463f911e|215f0fc7] (03+06/11) Accurately ripped
09 [25bee6cf|4d82ecf9] (03+06/11) Accurately ripped
10 [94d88852|fdfb87ac] (03+06/11) Accurately ripped
11 [c518a2bb|1e3e0a6b] (03+06/13) Accurately ripped
12 [672acd84|cc6c601f] (03+05/12) Accurately ripped
Offsetted by -838:
01 [a39b8dde] (02/13) Accurately ripped
02 [7b0d94a9] (00/11) No match (V2 was not tested)
03 [697941d4] (00/11) No match (V2 was not tested)
04 [5bc96612] (00/11) No match (V2 was not tested)
05 [939bbd64] (00/11) No match (V2 was not tested)
06 [d55db267] (00/11) No match (V2 was not tested)
07 [12b040bb] (00/11) No match (V2 was not tested)
08 [a4a88132] (00/11) No match (V2 was not tested)
09 [a88bf8ed] (00/11) No match (V2 was not tested)
10 [4c3e8586] (00/11) No match (V2 was not tested)
11 [683fb2c1] (02/13) Accurately ripped
12 [6e5191f3] (02/12) Accurately ripped

Track Peak [ CRC32 ] [W/O NULL]
– 98,8 [8AFF8790] [10D98A8B]
01 98,8 [13C45E5A] [0456DA11]
02 98,8 [047976E0] [8DCCA618]
03 98,8 [3EBA8D76] [94A3E900]
04 98,8 [6773C7A3] [4BAAF859]
05 98,8 [551610DA] [18E1364E]
06 98,8 [A9E0591C] [16F4D912]
07 98,8 [6A517F18] [BADB587E]
08 98,8 [D5F24B9E] [9BB8E972]
09 98,8 [D5FAB37B] [1442E247]
10 98,8 [5FE0B183] [AA01FAA3]
11 98,8 [D8602C0C] [BF0B126B]
12 98,8 [7E50594D] [57C2F5DC]

Thanks to catfish27

See also:
Magic Sam - West Side Soul (1968) [Reissue 1993]