Subcategories

Magnum - On A Storyteller's Night (1985)

Posted By: Andi_Deris
Magnum - On A Storyteller's Night (1985)

Magnum - On A Storyteller's Night (1985)
EAC Rip | FLAC: Image+Cue+Log | 315 Mb | MP3 CBR 320 kbps | 119 Mb | Scans | 111 Mb | Time: 45:48
FM Records | WKFM XD 34
Melodic Rock, Progressive/Art Rock

’On a Storyteller's Night’ is the fifth studio album by British melodic rock band Magnum, released in 1985 on FM Records. The album is widely considered as Magnum's breakthrough album. This album features one of the Tony Clarkin's most thoughtful songs, "Les Morts Dansant" - a simple song in that paints a picture of a man being executed by a firing squad. It is the way in which the song accomplishes this, with some very colorful and imaginative metaphors. The song was covered in 1987 by American singer Patty Smyth of the band Scandal on her first solo album Never Enough, but because of its French title the song was retitled "Call To Heaven".

Magnum - On A Storyteller's Night (1985)




Track Listing

01. How Far Jerusalem (06:30)
02. Just Like An Arrow (03:22)
03. On A Storyteller's Night (05:00)
04. Before First Light (03:52)
05. Les Morts Dansants (05:47)
06. Endless Love (04:28)
07. Two Hearts (04:23)
08. Steal Your Heart (03:57)
09. All England's Eyes (04:47)
10. The Last Dance (03:41)

Produced by Kit Woolven

The Band

• Bob Catley - Lead Vocals
• Tony Clarkin - All Guitars & Backing Vocals
• Jim Simpson - Drums & Percussion
• Mark Stanway - Keyboards
• Wally Lowe - Bass & Backing Vocals

*****
• Mo Birch - Backing Vocals (on "Les Mort Dansant")

Notes

P. 1985 The Heavy Metal Record Co. Ltd./Time Records Ltd.
C. 1985 Time Records Ltd.
FM is a division of The Heavy Metal Record Co. Ltd.


Exact Audio Copy V1.0 beta 3 from 29. August 2011

EAC extraction logfile from 24. March 2015, 20:52

Magnum / On A Storyteller's Night

Used drive : HL-DT-STDVDRAM GH22NS40 Adapter: 4 ID: 0

Read mode : Secure
Utilize accurate stream : Yes
Defeat audio cache : Yes
Make use of C2 pointers : No

Read offset correction : 667
Overread into Lead-In and Lead-Out : No
Fill up missing offset samples with silence : Yes
Delete leading and trailing silent blocks : No
Null samples used in CRC calculations : Yes
Used interface : Native Win32 interface for Win NT & 2000

Used output format : User Defined Encoder
Selected bitrate : 1024 kBit/s
Quality : High
Add ID3 tag : Yes
Command line compressor : C:\Program Files\FLAC\flac.exe
Additional command line options : -V -8 -T "Date=%year%" -T "Genre=%genre%" %source%


TOC of the extracted CD

Track | Start | Length | Start sector | End sector
––––––––––––––––––––––––––––-
1 | 0:00.32 | 6:29.63 | 32 | 29269
2 | 6:30.20 | 3:22.25 | 29270 | 44444
3 | 9:52.45 | 4:59.57 | 44445 | 66926
4 | 14:52.27 | 3:52.30 | 66927 | 84356
5 | 18:44.57 | 5:46.35 | 84357 | 110341
6 | 24:31.17 | 4:28.28 | 110342 | 130469
7 | 28:59.45 | 4:22.65 | 130470 | 150184
8 | 33:22.35 | 3:57.12 | 150185 | 167971
9 | 37:19.47 | 4:46.65 | 167972 | 189486
10 | 42:06.37 | 3:41.10 | 189487 | 206071


Range status and errors

Selected range

Filename I:\Rips\Magnum - On A Storyteller's Night.wav

Peak level 100.0 %
Extraction speed 1.7 X
Range quality 99.9 %
Test CRC 70CD8839
Copy CRC 70CD8839
Copy OK

No errors occurred


AccurateRip summary

Track 1 accurately ripped (confidence 13) [5DB907EF] (AR v2)
Track 2 accurately ripped (confidence 13) [3AC4FE79] (AR v2)
Track 3 accurately ripped (confidence 13) [0EBC76F9] (AR v2)
Track 4 accurately ripped (confidence 13) [B7EDDD3C] (AR v2)
Track 5 accurately ripped (confidence 13) [EDA257BD] (AR v2)
Track 6 accurately ripped (confidence 13) [D2DA5399] (AR v2)
Track 7 accurately ripped (confidence 13) [4C8E1F98] (AR v2)
Track 8 accurately ripped (confidence 13) [1180896F] (AR v2)
Track 9 accurately ripped (confidence 13) [92764BB3] (AR v2)
Track 10 accurately ripped (confidence 13) [686B6E70] (AR v2)

All tracks accurately ripped

End of status report

==== Log checksum 55AF0FB7CD52D405E73B8373E4CB7F23C3FD769161DAF126E595005AB0FAE586 ====


Many thanks to the original uploader: powermet


Bob Catley 1998 The Tower + 1999 Live At The Gods (Official Bootleg) [Japanese Ed. 2000] 2CD
Bob Catley 1999 Legends [Japanese Ed. 2000]
Bob Catley 2001 Middle Earth [Japanese Ed.]
Bob Catley 2003 When Empires Burns [Japanese Ed.]
Bob Catley 2006 Spirit Of Man [Japanese Ed.]
Bob Catley 2008 Immortal [Japanese Ed.]

Escape 2012 Unbreakable
Escape 2013 Borderline

Hard Rain 1997 Hard Rain [Japan 1st Press, Promo]
Hard Rain 1999 When The Good Times Come

Magnum 1978 Kingdom Of Madness [Japanese Ed. 2006] 2CD
Magnum 1979 Magnum II [Japanese Ed. 2006]
Magnum 1980 Marauder [Japanese Ed. 2006]
Magnum 1982 Chase The Dragon
Magnum 1982 Chase The Dragon [Japanese Ed. 2006]
Magnum 1983 The Eleventh Hour!
Magnum 1983 The Eleventh Hour! [Japanese Ed. 2006]
Magnum 1985 On A Storyteller's Night [Japanese Ed. 2006] 2CD
Magnum 1986 Vigilante
Magnum 1986 Anthology
Magnum 1988 Wings Of Heaven [Germany 1st Press]
Magnum 1990 Goodnight L.A.
Magnum 1990 Goodnight L.A. [Japan 1st Press]
Magnum 1993 Chapter & Verse: The Very Best Of Magnum
Magnum 1994 Rock Art
Magnum 2002 Breath Of Life [Japanese Ed.] 2CD
Magnum 2005 Livin' The Dream 1978 - 2005 [2xDVD[/url]
Magnum 2007 Princess Alice And The Broken Arrow [Japanese Ed.]
Magnum 2012 On The 13th Day [2CD]
Magnum 2014 Escape From The Shadow Garden [Digipak Ed.] CD+DVD
Magnum 2014 Escape From The Shadow Garden [Japanese Ed.] 2CD

Pulse 2002 Pulse
Pulse 2004 Worlds Apart

Ten 2012 Heresy And Creed [Japanese Ed.]
Ten 2014 Albion [Japanese Ed.]