Subcategories

Bernard Haitink, Royal Concertgebouw Orchestra - Mahler: Symphony No.9 (2012) [Blu-Ray]

Posted By: Vilboa
Bernard Haitink, Royal Concertgebouw Orchestra - Mahler: Symphony No.9 (2012) [Blu-Ray]

Bernard Haitink, Royal Concertgebouw Orchestra - Mahler: Symphony No.9 (2012) [Blu-Ray]
BluRay | BDMV | MPEG-4 AVC Video / 21000 kbps / 1080i / 29,970 fps | 92 min | 21,5 Gb
Audio1: LPCM Audio / 2.0 / 24-bit | Audio2: DTS-HD Master Audio / 5.0 / 96 kHz / 6104 kbps

BluRay-rip | AVC | MKV 1920x1080 / 6215 kbps / 29,970 fps | 92 min | 4,96 Gb
Audio: DTS / 5ch / 1509 kbps / 48.0 KHz / 24 bits
Classical | RCO Live

A host of accomplished conductors including Daniel Harding, Daniele Gatti, Bernard Haitink and Eliahu Inbal lead the Royal Concertgebouw Orchestra in these performances of Mahler's Symphonies Nos. 1-10. Recorded in Amsterdam over two seasons in 2010/11, the collection also includes 'Das Lied von der Erde'.
“its employment of various conductors enables one to more closely observe their subtle differences in technique…It's also a delight to see such detailed camera direction, with the musicians foregrounded just as they appear: the revelation of the battery of eight French horns in the 3rd is all the more thrilling for its sudden appearance.” (The Idependent)

Cast:
Royal Concertgebouw Orchestra
Conductor - Bernard Haitink

Track:
Symphony No. 9:
I. Andante comodo
II. Im Tempo eines gemächlichen Ländlers. Etwas täppisch und sehr derb
III. Rondo-Burleske: Allegro assai. Sehr trotzig
IV. Adagio. Sehr langsam und noch zurückhaltend


Disc Title: MAHLER9
Disc Size: 23 150 794 116 bytes
Protection: AACS
BD-Java: Yes
Playlist: 00002.MPLS
Size: 23 136 927 744 bytes
Length: 1:31:59.947
Total Bitrate: 33,53 Mbps
Video: MPEG-4 AVC Video / 21000 kbps / 1080i / 29,970 fps / 16:9 / High Profile 4.1
Audio: Undetermined / LPCM Audio / 2.0 / 96 kHz / 4608 kbps / 24-bit
Audio: Undetermined / DTS-HD Master Audio / 5.0 / 96 kHz / 6104 kbps / 24-bit (DTS Core: 5.0 / 48 kHz / 1509 kbps / 24-bit)


General
Unique ID : 227372873458248864432666345081924014911 (0xAB0E6C2C76B057FA923FBD036EA8D33F)
Complete name : C:\MAHLER9.mkv
Format : Matroska
Format version : Version 2
File size : 4.97 GiB
Duration : 1h 31mn
Overall bit rate : 7 734 Kbps
Movie name : MAHLER9_t00
Encoded date : UTC 2017-04-27 14:06:55
Writing application : DVDFab 9.1.6.8
Writing library : libebml v0.7.8 + libmatroska v0.8.1

Video
ID : 1
Format : AVC
Format/Info : Advanced Video Codec
Format profile : High@L4.1
Format settings, CABAC : Yes
Format settings, ReFrames : 2 frames
Codec ID : V_MPEG4/ISO/AVC
Duration : 1h 31mn
Bit rate : 6 215 Kbps
Width : 1 920 pixels
Height : 1 080 pixels
Display aspect ratio : 16:9
Frame rate mode : Constant
Frame rate : 29.970 fps
Color space : YUV
Chroma subsampling : 4:2:0
Bit depth : 8 bits
Scan type : Progressive
Bits/(Pixel*Frame) : 0.100
Stream size : 3.90 GiB (78%)
Writing library : x264 core 142
Encoding settings : cabac=1 / ref=1 / deblock=1:-1:-1 / analyse=0x3:0 / me=hex / subme=5 / psy=0 / mixed_ref=0 / me_range=16 / chroma_me=1 / trellis=0 / 8x8dct=1 / cqm=0 / deadzone=21,11 / fast_pskip=1 / chroma_qp_offset=0 / threads=8 / lookahead_threads=2 / sliced_threads=0 / nr=0 / decimate=1 / interlaced=0 / bluray_compat=0 / constrained_intra=0 / bframes=2 / b_pyramid=0 / b_adapt=1 / b_bias=0 / direct=1 / weightb=1 / open_gop=0 / weightp=0 / keyint=24 / keyint_min=13 / scenecut=40 / intra_refresh=0 / rc=abr / mbtree=0 / bitrate=6215 / ratetol=1.0 / qcomp=0.60 / qpmin=0 / qpmax=69 / qpstep=4 / ip_ratio=1.40 / pb_ratio=1.30 / aq=1:1.00
Default : Yes
Forced : No
Color primaries : BT.709
Transfer characteristics : BT.709
Matrix coefficients : BT.709
Color range : Limited

Audio
ID : 2
Format : DTS
Format/Info : Digital Theater Systems
Mode : 16
Format settings, Endianness : Big
Codec ID : A_DTS
Duration : 1h 31mn
Bit rate mode : Constant
Bit rate : 1 509 Kbps
Channel(s) : 5 channels
Channel positions : Front: L C R, Side: L R
Sampling rate : 48.0 KHz
Bit depth : 24 bits
Compression mode : Lossy
Stream size : 993 MiB (20%)
Default : Yes
Forced : No

Menu
00:00:00.000 : en:Chapter 01
00:30:04.736 : en:Chapter 02
00:47:05.989 : en:Chapter 03
01:00:47.577 : en:Chapter 04


All screenshots taken from Blu-ray

Bernard Haitink, Royal Concertgebouw Orchestra - Mahler: Symphony No.9 (2012) [Blu-Ray]
Bernard Haitink, Royal Concertgebouw Orchestra - Mahler: Symphony No.9 (2012) [Blu-Ray]