Subcategories

Mama Cass - Dedicated To The One I Love (2002)

Posted By: uff
Mama Cass - Dedicated To The One I Love (2002)

Mama Cass - Dedicated To The One I Love (2002)
Pop Rock | 1cd | EAC Rip | Wv + Cue + Log | covers
Spectrum Music, 544 625-2 | rec: 1968-1970 | 400Mb

This compilation does a good job of assembling the highlights of Mama Cass Elliot's catalog on the Dunhill Records label, 1968-70, which was her most commercially successful material. (She also charted in 1971 with the duo album Dave Mason & Cass Elliot on Blue Thumb Records and recorded three albums for RCA Victor Records, 1971-73, none of which made the charts.) Almost all of her chart singles as a solo artist are included, which is to say, the Top 20 hit revival "Dream a Little Dream of Me" (recorded while she was still a member of the Mamas & the Papas); the Top 40 hits "It's Getting Better" (Top Ten in the U.K.) and "Make Your Own Kind of Music" (both written by the Brill Building team of Barry Mann and Cynthia Weil); the chart entries "New World Coming" (also written by Mann/Weil), "Move in a Little Closer, Baby," and "California Earthquake" (written by John Hartford); and the movie theme "The Good Times Are Coming" (from the Lee Marvin film Monte Walsh), which reached the Top 20 on the easy listening chart. (Two other singles with minor chart success are missing: "A Song That Never Comes," which grazed the Hot 100, and "Don't Let the Good Life Pass You By," which made the easy listening chart.) The album is filled out with interesting LP cuts, such as Delaney Bramlett's "Lady Love," Laura Nyro's "He's a Runner," and a revival of "I Can Dream, Can't I?" done in an arrangement similar to the one for "Dream a Little Dream of Me" that was actually issued as a B-side single and probably should have been the A-side. Elliot's strong, well-rounded voice is surrounded by lush pop orchestrations on most of these tracks, which sometimes lean a little toward Dixieland jazz, ragtime, or country, but always have a light, happy tone, even when the lyrics are not entirely sunny. ~Allmusic

Track listing
01. Make Your Own Kind Of Music (2:23)
02. Dream A Little Dream Of Me (3:13)
03. It's Getting Better (3:00)
04. Blow Me A Kiss (2:50)
05. California Earthquake (3:11)
06. Move In A Little Closer Baby (2:38)
07. Easy Come, Easy Go (2:43)
08. Talkin' To Your Toothbrush (2:23)
09. When I Just Wear My Smile (2:22)
10. Don't Let The Good Life Pass You By (2:44)
11. Lady Love (2:59)
12. Sour Grapes (2:31)
13. I Can Dream, Can't I? (2:34)
14. New World Coming (2:10)
15. He's A Runner (3:38)
16. Good Times Are Coming (2:52)
17. Who's To Blame? (2:54)
18. Ain't Nobody Else Like You (2:24)


Exact Audio Copy V1.0 beta 3 from 29. August 2011

Отчёт EAC об извлечении, выполненном 6. ноября 2011, 15:35

Mama Cass / Dedicated To The One I Love (Spectrum Music, 544 625-2, UK)

Дисковод: ASUS DRW-1814BL Adapter: 0 ID: 0

Режим чтения : Достоверность
Использование точного потока : Да
Отключение кэша аудио : Да
Использование указателей C2 : Нет

Коррекция смещения при чтении : 6
Способность читать области Lead-in и Lead-out : Нет
Заполнение пропущенных сэмплов тишиной : Да
Удаление блоков с тишиной в начале и конце : Нет
При вычислениях CRC использовались нулевые сэмплы : Да
Интерфейс : Встроенный Win32-интерфейс для Win NT/2000

Выходной формат : Внутренние WAV-операции
Формат сэмплов : 44.100 Гц; 16 бит; стерео


TOC извлечённого CD

Трек | Старт | Длительность | Начальный сектор | Конечный сектор
––––––––––––––––––––––––––––––––––-
1 | 0:00.00 | 2:23.59 | 0 | 10783
2 | 2:23.59 | 3:13.67 | 10784 | 25325
3 | 5:37.51 | 3:01.13 | 25326 | 38913
4 | 8:38.64 | 2:51.32 | 38914 | 51770
5 | 11:30.21 | 3:12.43 | 51771 | 66213
6 | 14:42.64 | 2:38.64 | 66214 | 78127
7 | 17:21.53 | 2:44.32 | 78128 | 90459
8 | 20:06.10 | 2:24.10 | 90460 | 101269
9 | 22:30.20 | 2:23.54 | 101270 | 112048
10 | 24:53.74 | 2:45.12 | 112049 | 124435
11 | 27:39.11 | 2:59.73 | 124436 | 137933
12 | 30:39.09 | 2:31.73 | 137934 | 149331
13 | 33:11.07 | 2:35.31 | 149332 | 160987
14 | 35:46.38 | 2:10.67 | 160988 | 170804
15 | 37:57.30 | 3:39.50 | 170805 | 187279
16 | 41:37.05 | 2:53.39 | 187280 | 200293
17 | 44:30.44 | 2:55.54 | 200294 | 213472
18 | 47:26.23 | 2:24.30 | 213473 | 224302


Характеристики диапазона извлечения и сообщения об ошибках

Выбранный диапазон

Имя файла G:\ley-barmaley\_\Mama Cass - Dedicated To The One I Love (Spectrum Music, 544 625-2, UK).wav

Пиковый уровень 100.0 %
Скорость извлечения 7.4 X
Качество диапазона 100.0 %
CRC теста 40C7C730
CRC копии 40C7C730
Копирование… OK

Ошибок не произошло


AccurateRip: сводка

Трек 1 : извлечено точно (доверие 2) [B06DF776] (AR v2)
Трек 2 : извлечено точно (доверие 2) [B183A89C] (AR v2)
Трек 3 : извлечено точно (доверие 2) [92A41AEF] (AR v2)
Трек 4 : извлечено точно (доверие 2) [490AC3E0] (AR v2)
Трек 5 : извлечено точно (доверие 2) [98566496] (AR v2)
Трек 6 : извлечено точно (доверие 2) [EE367889] (AR v2)
Трек 7 : извлечено точно (доверие 2) [904D4409] (AR v2)
Трек 8 : извлечено точно (доверие 2) [735AE59D] (AR v2)
Трек 9 : извлечено точно (доверие 2) [BBDE0DBD] (AR v2)
Трек 10 : извлечено точно (доверие 2) [FAF37F75] (AR v2)
Трек 11 : извлечено точно (доверие 2) [6CD88A3C] (AR v2)
Трек 12 : извлечено точно (доверие 2) [5EC570B1] (AR v2)
Трек 13 : извлечено точно (доверие 2) [8D16CE8D] (AR v2)
Трек 14 : извлечено точно (доверие 2) [162D5376] (AR v2)
Трек 15 : извлечено точно (доверие 2) [4FAB5404] (AR v2)
Трек 16 : извлечено точно (доверие 2) [71618F07] (AR v2)
Трек 17 : извлечено точно (доверие 2) [289FE28D] (AR v2)
Трек 18 : извлечено точно (доверие 2) [B95DFF11] (AR v2)

Все треки извлечены точно

Конец отчёта

–– CUETools DB Plugin V2.1.3

[CTDB TOCID: S7XwMpMrhkp6DvQGmGFpxdjakts-] found, Submit result: S7XwMpMrhkp6DvQGmGFpxdjakts- has been confirmed
[66556ee6] (10/10) Accurately ripped


==== Контрольная сумма отчёта 30AC423A44209B71A6C31EE4E10F7DA707AB81B745C92746B41F93D916D994AC ====



[CUETools log; Date: 2017. 09. 06. 8:43:34; Version: 2.1.6]
[CTDB TOCID: S7XwMpMrhkp6DvQGmGFpxdjakts-] found.
Track | CTDB Status
1 | (6/6) Accurately ripped
2 | (6/6) Accurately ripped
3 | (5/6) Accurately ripped
4 | (6/6) Accurately ripped
5 | (5/6) Accurately ripped
6 | (6/6) Accurately ripped
7 | (5/6) Accurately ripped
8 | (5/6) Accurately ripped
9 | (6/6) Accurately ripped
10 | (6/6) Accurately ripped
11 | (6/6) Accurately ripped
12 | (5/6) Accurately ripped
13 | (5/6) Accurately ripped
14 | (6/6) Accurately ripped
15 | (6/6) Accurately ripped
16 | (5/6) Accurately ripped
17 | (6/6) Accurately ripped
18 | (6/6) Accurately ripped
[AccurateRip ID: 0020b611-01b2db7e-0d0bae12] found.
Track [ CRC | V2 ] Status
01 [49673982|b06df776] (08+06/17) Accurately ripped
02 [4d6e1fa2|b183a89c] (08+06/17) Accurately ripped
03 [030b2502|92a41aef] (09+06/18) Accurately ripped
04 [61bd6f65|490ac3e0] (08+06/17) Accurately ripped
05 [8872d880|98566496] (08+06/17) Accurately ripped
06 [5f265ce2|ee367889] (08+06/17) Accurately ripped
07 [b416f67a|904d4409] (08+06/17) Accurately ripped
08 [9a386736|735ae59d] (08+06/17) Accurately ripped
09 [46dd1459|bbde0dbd] (08+06/17) Accurately ripped
10 [29a7a2c9|faf37f75] (08+06/17) Accurately ripped
11 [270fa18d|6cd88a3c] (08+06/17) Accurately ripped
12 [7fd79846|5ec570b1] (08+06/17) Accurately ripped
13 [e2c8a490|8d16ce8d] (08+06/17) Accurately ripped
14 [5af3a905|162d5376] (08+06/17) Accurately ripped
15 [5c2db6bd|4fab5404] (08+06/17) Accurately ripped
16 [0af4fff0|71618f07] (08+06/17) Accurately ripped
17 [c3d986bf|289fe28d] (08+06/17) Accurately ripped
18 [9530867b|b95dff11] (08+06/17) Accurately ripped
Offsetted by -18:
01 [b64df246] (03/17) Accurately ripped
02 [476078ae] (03/17) Accurately ripped
03 [756b851e] (03/18) Accurately ripped
04 [d14816ed] (03/17) Accurately ripped
05 [28027780] (03/17) Accurately ripped
06 [72eab21a] (03/17) Accurately ripped
07 [ebb341c8] (03/17) Accurately ripped
08 [12e4bd08] (03/17) Accurately ripped
09 [c8363b4f] (03/17) Accurately ripped
10 [aaf196dd] (03/17) Accurately ripped
11 [487d241b] (03/17) Accurately ripped
12 [0a9d9c96] (03/17) Accurately ripped
13 [b54240dc] (03/17) Accurately ripped
14 [cd379193] (03/17) Accurately ripped
15 [29487139] (03/17) Accurately ripped
16 [967e2814] (03/17) Accurately ripped
17 [b4f59d39] (03/17) Accurately ripped
18 [0dd8f8b5] (03/17) Accurately ripped

Track Peak [ CRC32 ] [W/O NULL] [ LOG ]
– 100,0 [40C7C730] [0DC2497C] CRC32
01 99,9 [77DAF5E1] [E8D6BC8D]
02 76,7 [B361CD41] [03431F49]
03 99,9 [7A4C7632] [BF7BA38B]
04 99,9 [DCF7FAE0] [52A52004]
05 99,9 [028E75EB] [783462E0]
06 76,7 [1E8643A8] [C9D20283]
07 99,8 [17957798] [5C13D29F]
08 99,5 [01FA1AAD] [4B9ED989]
09 77,8 [19EA4FC3] [30BB43E3]
10 100,0 [212B1087] [095EB864]
11 100,0 [7FC6DB44] [A14A6B31]
12 100,0 [7DF014FB] [DAA358E9]
13 97,9 [0F2F5313] [192F1D11]
14 99,9 [FC8186FB] [581CBF68]
15 99,9 [0C9BA92A] [FC0CE738]
16 99,9 [170CD417] [4A278434]
17 99,9 [852A7C70] [F33F5752]
18 100,0 [21B9EC16] [46FD25C2]


Thx to ley-barmaley