Subcategories

Manowar - Kings Of Metal MMXIV (2014, 2CD)

Posted By: Necromandus
Manowar - Kings Of Metal MMXIV (2014, 2CD)

Manowar - Kings Of Metal MMXIV (2014, 2CD)
EAC Rip | FLAC, IMG+CUE+LOG | 640 MB | MP3 CBR 320 Kbps | 220 MB | Complete HQ Scans | PNG -> 240 MB
Heavy Metal | Label: Magic Circle Entertainment #MCA 01254-2 | RAR 3% Rec. | Nitroflare.com

Kings of Metal MMXIV is a re-recording of Manowar's 1988 album, Kings of Metal. Lyrics are slightly changed as well as song titles.
Borne with a mettle heart of steel, the Kings of Metal known as MANOWAR have chosen to re-record their crowning achievement, but with a different ring and death tone. Many will hail the outlaw warlords for revisiting this masterpiece recorded well over 25 years ago; while others who die for Metal, will just want to kill the sextageneric manwhores. Man-up warriors, because even though this is quite a departure from what they accomplished with “Battle Hymns”, it is still louder than hell! Hail MANOWAR!

After the lack of thunderous guise that was “The Lord Of Steel”, I had abandoned hope for any more violence and bloodshed from these high kings of Metal. I would rather hear what the humorous polyglots from Italy known as NANOWAR OF STEEL had to offer. Then when the revelation that the warriors of the world were united in a fight to try to rework this true triumph of steel, I once again felt the sting of the bumblebeast, as when I was younger, in my prime. Once again, I am willing to vie for the kings with kind words in mind! The burning power of my words is to hail the skill, and divergent, diligent musicianship. Just like with “No Place – 2014” by FLOTSAM & JETSAM, there are major nuances. The song order is clearly altered, the lyrics have been updated in many respects, “Thy” is added for effect to the song titles, “The Warrior's Prayer” has all new narration, there are new countries referenced in “Blood Of The Kings”, the second disc is comprised of all instrumentals, etc. In fact, the so-called Metal version of “Thy Crown And Thy Ring”, sounds more like an orchestral version. I find it a bit pretentious to hear the metronome on “Bumblebee” just to prove Joey can play his solo at 300 BPM, but I relish the instrumental guitar version of “Heart Of Steel MMXIV”. As always, everything is over the top, as this is MANOWAR!

I take pleasure in knowing that they did not become enslaved by redundancy. I sincerely appreciative the fact that they did not bother redoing their worst song ever – The CD bonus track of “Pleasure Slave”. All of this, for me, makes it even more inviting and exciting. The production is quite different and updated too. Clearly Pro-Tools played a big part in the modernization and remixing, and this tends to take a bit of the balls out of the final conflict. I agree that there are punctuated, glaring inconsistencies; however, I had always longed for a remaster of the Atlantic years with this as well as “Fighting The World”. Therefore, I will defend or support this master of revenge which sates my appetites and will blow your speakers! Perhaps with hatred or intolerance, an army of immortal dedicates may take umbrage to the fact that Ross The Boss Friedman did not contribute with his secret of steel. Even still, many worriers may ponder and wonder if it is fair for Donnie to fill in for the truly missed Chris Columbus. Why was Carl Canedy not asked? As it dawns on me, I let the Gods decide as I accept and acknowledge that this effective line-up upholds the mettle might and angelic courage to cross the bridge of this tragic death.

Where other bands play, MANOWAR thrill! Despite the slander, these seasoned dogs of war kill with the power and might to be number 1! These brothers of true Metal night after night continue to ride into glorious praise, on all accounts, year after year. Led by Louis Marullo, or as you know him Eric Adams ,who even at 60 remains one of the best voices in the Metal milieu, balanced by the bass thunderpick and brash arrogance of Joey DeMaio, and the axe wielding firepower of Karl (Mojaleski) Logan, who has banded with his brothers for nigh 20 years, they all have the ability to play on and on tenaciously, as real men play on 10! Ultimately, I will leave the decision of obtaining this march for reinventing up to you. I was so grateful to receive a digital promo for this timely resurgence. I realize that the avaricious animals at Magic Circle are asking for a steep price for all of their music, and the heavy cost just to witness the madness of MANOWAR rivals that of KISS! Recently, I had hoped to see them in Chicago until I was informed that parking fee alone is what I normally pay for a club show. Thankfully, this call to arms by the sons of Odin is very celestial, and since the original warrior's prayer is my favorite in their epic catalog, it was an honor to fast from other acts, and take or celebrate a few days with the Metal Kings.

CD1 Tracklist :

1. Hail And Kill MMXIV - 6:12
2. Kings Of Metal MMXIV - 3:40
3. The Heart Of Steel MMXIV (Acoustic Intro) - 5:07
4. A Warrior's Prayer MMXIV - 5:43
5. The Blood Of The Kings MMXIV - 7:58
6. Thy Kingdom Come MMXIV - 4:07
7. The Sting Of The Bumblebee MMXIV - 1:16
8. Thy Crown And Thy Ring MMXIV (Orchestral Version) - 4:57
9. On Wheels Of Fire MMXIV - 4:17
10. Thy Crown And Thy Ring MMXIV (Metal Version) - 4:59
11. The Heart Of Steel MMXIV (Guitar Instrumental) - 4:50

Exact Audio Copy V1.0 beta 3 from 29. August 2011

EAC extraction logfile from 1. May 2014, 9:44

Manowar / Kings Of Metal MMXIV (CD1)

Used drive : PIONEER DVD-RW DVR-219L Adapter: 1 ID: 0

Read mode : Secure
Utilize accurate stream : Yes
Defeat audio cache : Yes
Make use of C2 pointers : No

Read offset correction : 6
Overread into Lead-In and Lead-Out : No
Fill up missing offset samples with silence : Yes
Delete leading and trailing silent blocks : No
Null samples used in CRC calculations : Yes
Used interface : Native Win32 interface for Win NT & 2000

Used output format : Internal WAV Routines
Sample format : 44.100 Hz; 16 Bit; Stereo


TOC of the extracted CD

Track | Start | Length | Start sector | End sector
––––––––––––––––––––––––––––-
1 | 0:00.00 | 6:11.64 | 0 | 27888
2 | 6:11.64 | 3:39.60 | 27889 | 44373
3 | 9:51.49 | 5:06.58 | 44374 | 67381
4 | 14:58.32 | 5:42.58 | 67382 | 93089
5 | 20:41.15 | 7:57.66 | 93090 | 128930
6 | 28:39.06 | 4:06.58 | 128931 | 147438
7 | 32:45.64 | 1:15.52 | 147439 | 153115
8 | 34:01.41 | 4:56.40 | 153116 | 175355
9 | 38:58.06 | 4:16.66 | 175356 | 194621
10 | 43:14.72 | 4:59.20 | 194622 | 217066
11 | 48:14.17 | 4:50.23 | 217067 | 238839


Range status and errors

Selected range

Filename D:\.www.AvaxHome.ru\Manowar - Kings Of Metal MMXIV (CD1).wav

Peak level 100.0 %
Extraction speed 7.3 X
Range quality 99.9 %
Test CRC 5C59DC03
Copy CRC 5C59DC03
Copy OK

No errors occurred


AccurateRip summary

Track 1 accurately ripped (confidence 3) [F6F330FE] (AR v2)
Track 2 accurately ripped (confidence 3) [A3752239] (AR v2)
Track 3 accurately ripped (confidence 3) [505867E6] (AR v2)
Track 4 accurately ripped (confidence 3) [6079B955] (AR v2)
Track 5 accurately ripped (confidence 3) [60992907] (AR v2)
Track 6 accurately ripped (confidence 3) [5BF92CF1] (AR v2)
Track 7 accurately ripped (confidence 3) [0762A8A3] (AR v2)
Track 8 accurately ripped (confidence 3) [9ED83455] (AR v2)
Track 9 accurately ripped (confidence 3) [9A6A9AFC] (AR v2)
Track 10 accurately ripped (confidence 3) [B15071E9] (AR v2)
Track 11 accurately ripped (confidence 3) [4F0C19AC] (AR v2)

All tracks accurately ripped

End of status report

–– CUETools DB Plugin V2.1.4

[CTDB TOCID: CNPHXNcjtL.avPKJ36Qbx7cIbFc-] found
Submit result: CNPHXNcjtL.avPKJ36Qbx7cIbFc- has been confirmed
Track | CTDB Status
1 | (12/12) Accurately ripped
2 | (12/12) Accurately ripped
3 | (12/12) Accurately ripped
4 | (12/12) Accurately ripped
5 | (12/12) Accurately ripped
6 | (12/12) Accurately ripped
7 | (12/12) Accurately ripped
8 | (12/12) Accurately ripped
9 | (12/12) Accurately ripped
10 | (12/12) Accurately ripped
11 | (12/12) Accurately ripped


==== Log checksum 1402BFBEBB557AFC9DD67D2393552404B29EB6F2AAEDE1A5B9B0586F2237A973 ====

CD2 Tracklist :

1. Hail And Kill MMXIV (Instrumental) - 6:15
2. Kings Of Metal MMXIV (Instrumental) - 3:44
3. The Heart Of Steel MMXIV (Orchestral Intro - Instrumental) - 4:52
4. The Blood Of The Kings MMXIV (Instrumental) - 8:03
5. Thy Kingdom Come MMXIV (Instrumental) - 4:09
6. Thy Crown And Thy Ring MMXIV (Orchestral Version - Instrumental) - 4:59
7. On Wheels Of Fire MMXIV (Instrumental) - 4:15

Exact Audio Copy V1.0 beta 3 from 29. August 2011

EAC extraction logfile from 1. May 2014, 9:58

Manowar / Kings Of Metal MMXIV (CD2)

Used drive : PIONEER DVD-RW DVR-219L Adapter: 1 ID: 0

Read mode : Secure
Utilize accurate stream : Yes
Defeat audio cache : Yes
Make use of C2 pointers : No

Read offset correction : 6
Overread into Lead-In and Lead-Out : No
Fill up missing offset samples with silence : Yes
Delete leading and trailing silent blocks : No
Null samples used in CRC calculations : Yes
Used interface : Native Win32 interface for Win NT & 2000

Used output format : Internal WAV Routines
Sample format : 44.100 Hz; 16 Bit; Stereo


TOC of the extracted CD

Track | Start | Length | Start sector | End sector
––––––––––––––––––––––––––––-
1 | 0:00.00 | 6:15.13 | 0 | 28137
2 | 6:15.13 | 3:44.00 | 28138 | 44937
3 | 9:59.13 | 4:52.22 | 44938 | 66859
4 | 14:51.35 | 8:03.28 | 66860 | 103112
5 | 22:54.63 | 4:09.13 | 103113 | 121800
6 | 27:04.01 | 4:59.20 | 121801 | 144245
7 | 32:03.21 | 4:14.70 | 144246 | 163365


Range status and errors

Selected range

Filename D:\.www.AvaxHome.ru\Manowar - Kings Of Metal MMXIV (CD2).wav

Peak level 100.0 %
Extraction speed 6.7 X
Range quality 100.0 %
Test CRC 2B37E533
Copy CRC 2B37E533
Copy OK

No errors occurred


AccurateRip summary

Track 1 accurately ripped (confidence 1) [6E606103] (AR v2)
Track 2 accurately ripped (confidence 1) [4E1BD1D7] (AR v2)
Track 3 accurately ripped (confidence 1) [D1F93A57] (AR v2)
Track 4 accurately ripped (confidence 1) [047E4EC5] (AR v2)
Track 5 accurately ripped (confidence 1) [B5D73D19] (AR v2)
Track 6 accurately ripped (confidence 1) [63FE6087] (AR v2)
Track 7 accurately ripped (confidence 1) [83D3B954] (AR v2)

All tracks accurately ripped

End of status report

–– CUETools DB Plugin V2.1.4

[CTDB TOCID: 8eFvHnO2vhgAF3985mUfUhmrUg8-] found
Submit result: 8eFvHnO2vhgAF3985mUfUhmrUg8- has been confirmed
Track | CTDB Status
1 | (10/10) Accurately ripped
2 | (10/10) Accurately ripped
3 | (10/10) Accurately ripped
4 | (10/10) Accurately ripped
5 | (10/10) Accurately ripped
6 | (10/10) Accurately ripped
7 | (10/10) Accurately ripped


==== Log checksum 5A1AD2BBABDAA1FD71EF57CDE359512724CAFBB5C805BCC0F1B0D2C5D23E17B7 ====

• Eric Adams - Vocals
• Karl Logan - Guitars, Keyboards
• Joey DeMaio - Bass
• Donnie Hamzik - Drums

Recorded by Brian Blessed at Circle studios, Birmingham, UK
Mastered by Joey DeMaio with Dirk Kloiber in Haus Wahnfried
Mixed at Dogmatic Studios by Rich Brin
Lossless (FLAC)*
CD1 - http://www.nitroflare.com/view/97BFFAF4BCAA8E6/man2014kom1los.rar
CD2 - http://www.nitroflare.com/view/6FEE75EB21221AA/man2014kom2los.rar

All Covers (PNG)
http://www.nitroflare.com/view/F9D4A22E1759279/man2014komcov.rar

Lossy HQ (320 Kbps CBR)
CD1 - http://www.nitroflare.com/view/94AC59AC0F4B468/man2014kom1mp3.rar
CD2 - http://www.nitroflare.com/view/09CBC8662350A52/man2014kom2mp3.rar

* Original CD -> EAC image, embedded cuesheet & more, foobar2000 ready, etc.
(all CUEs, LOGs and other technical info includes in the internal "CD_Support" archive).

Please, do not write these links at any web pages. Enjoy & keep the files alive!