Subcategories
Tags
Language
Tags

Marc-André Hamelin - Liszt & Thalberg: Opera Transcriptions & Fantasies (2020)

Posted By: ArlegZ
Marc-André Hamelin - Liszt & Thalberg: Opera Transcriptions & Fantasies (2020)

Marc-André Hamelin - Liszt & Thalberg: Opera Transcriptions & Fantasies (2020)
EAC | FLAC | Image (Cue & Log) ~ 257 Mb | Total time: 75:04 | Scans included
Classical | Label: Hyperion | CDA68320 | Recorded: 2019

If, as Liszt himself dubbed it, Hexaméron is ‘a monster’, it’s a monster which certainly holds no terrors for Marc-André Hamelin, and the encounter between them makes for some thrilling pianism. The remainder of the recital—high-octane transformations of nineteenth-century operatic favourites—is every bit as electrifying, from a musician who never ceases to astonish whatever the repertoire.

Performer:
Marc-André Hamelin, piano

Track List:
Hexaméron – Morceau de concert 'Grandes Variations de Bravoure sur la Marche des Puritains de Bellini' S392 (Franz Liszt & Vincenzo Bellini)
01. Introduction: Extrèmement lent
02. Tema: Allegro marziale
03. Variation I: Ben marcato (Thalberg)
04. Variation II: Moderato
05. Variation III di bravura (Pixis) – Ritornello (Liszt)
06. Variation IV: Legato e grazioso (Herz)
07. Variation V: Vivo e brillante (Czerny) – Fuocoso molto energico; Lento quasi recitativo (Liszt)
08. Variation VI: Largo, KKIIb/2 (Chopin) – [coda] (Liszt)
09. Finale: Molto vivace quasi prestissimo
10. Grande fantaisie sur des motifs de Don Pasquale Op 67 (Sigismond Thalberg & Gaetano Donizetti)
11. Ernani de Verdi – [Deuxième] Paraphrase de Concert S432 (Franz Liszt & Giuseppe Verdi)
12. Fantaisie sur des thèmes de Moïse Op 33 (Sigismond Thalberg & Gioachino Rossini)
13. Réminiscences de Norma de Bellini – Grande fantaisie S394 (Franz Liszt & Vincenzo Bellini)


Exact Audio Copy V1.5 from 20. February 2020

EAC extraction logfile from 8. January 2021, 22:07

Marc-André Hamelin / Liszt & Thalberg - Opera Transcriptions & Fantasies

Used drive : ASUS SDRW-08U7M-U Adapter: 1 ID: 0

Read mode : Secure
Utilize accurate stream : Yes
Defeat audio cache : Yes
Make use of C2 pointers : No

Read offset correction : 6
Overread into Lead-In and Lead-Out : No
Fill up missing offset samples with silence : Yes
Delete leading and trailing silent blocks : No
Null samples used in CRC calculations : Yes
Used interface : Native Win32 interface for Win NT & 2000

Used output format : User Defined Encoder
Selected bitrate : 128 kBit/s
Quality : High
Add ID3 tag : No
Command line compressor : C:\Program Files (x86)\Exact Audio Copy\Flac\flac.exe
Additional command line options : -V -8 -T "Date=%year%" -T "Genre=%genre%" %source%


TOC of the extracted CD

Track | Start | Length | Start sector | End sector
––––––––––––––––––––––––––––-
1 | 0:00.00 | 3:56.22 | 0 | 17721
2 | 3:56.22 | 1:25.06 | 17722 | 24102
3 | 5:21.28 | 0:56.06 | 24103 | 28308
4 | 6:17.34 | 2:49.36 | 28309 | 41019
5 | 9:06.70 | 1:19.70 | 41020 | 47014
6 | 10:26.65 | 1:23.04 | 47015 | 53243
7 | 11:49.69 | 3:26.13 | 53244 | 68706
8 | 15:16.07 | 2:31.16 | 68707 | 80047
9 | 17:47.23 | 3:04.49 | 80048 | 93896
10 | 20:51.72 | 14:15.00 | 93897 | 158021
11 | 35:06.72 | 7:36.52 | 158022 | 192273
12 | 42:43.49 | 14:57.32 | 192274 | 259580
13 | 57:41.06 | 17:25.12 | 259581 | 337967


Range status and errors

Selected range

Filename C:\temp\CDA68320 - Liszt, Thalberg - Opera Transcriptions & Fantasies - Hamelin - 2020\Liszt & Thalberg - Opera Transcriptions & Fantasies.wav

Peak level 96.0 %
Extraction speed 5.1 X
Range quality 99.9 %
Test CRC 9B2DC143
Copy CRC 9B2DC143
Copy OK

No errors occurred


AccurateRip summary

Track 1 accurately ripped (confidence 5) [D55E1EEC] (AR v2)
Track 2 accurately ripped (confidence 5) [02380F8E] (AR v2)
Track 3 accurately ripped (confidence 5) [1EE21AFC] (AR v2)
Track 4 accurately ripped (confidence 5) [D247D1A0] (AR v2)
Track 5 accurately ripped (confidence 5) [FDD791B4] (AR v2)
Track 6 accurately ripped (confidence 5) [75E60F4F] (AR v2)
Track 7 accurately ripped (confidence 5) [7BD97C30] (AR v2)
Track 8 accurately ripped (confidence 5) [5BC983C3] (AR v2)
Track 9 accurately ripped (confidence 5) [573B4A91] (AR v2)
Track 10 accurately ripped (confidence 5) [42DAC6D1] (AR v2)
Track 11 accurately ripped (confidence 5) [C66FF818] (AR v2)
Track 12 accurately ripped (confidence 5) [2D77795C] (AR v2)
Track 13 accurately ripped (confidence 5) [B18B267D] (AR v2)

All tracks accurately ripped

End of status report

==== Log checksum 9561A432333AF376179A153899160F9F8F9086E627B02023FCAD8A83426DF677 ====

Marc-André Hamelin - Liszt & Thalberg: Opera Transcriptions & Fantasies (2020)

Thanks to the original releaser