Tags
Language
Tags

Marc Minkowski, Les Musiciens du Louvre - Handel: Ariodante (1997)

Posted By: ArlegZ
Marc Minkowski, Les Musiciens du Louvre - Handel: Ariodante (1997)

Marc Minkowski, Les Musiciens du Louvre - Handel: Ariodante (1997)
EAC | FLAC | Image (Cue & Log) ~ 787 Mb | Total time: 61:15+63:22+53:49 | Scans included
Classical | Label: Archiv Produktion | # 457 271-2 | Recorded: 1997

Lynne Dawson is the star of this show. In Act 2, where Ginevra finds herself inexplicably rejected and condemned by everyone, Dawson brings real depth of tone and feeling to her E minor lament, 'Il mio crudel martoro'; in the final act she shines in the desolate miniature 'Io ti bacio' and brings much fire to the outburst 'Sì, morro'. But she never transgresses the canons of Baroque style. Von Otter, too, has much marvellous music – the aria 'Scherza infida' is one of Handel's greatest expressions of grief – and she sings it beautifully, but she isn't really at one with his idiom and seems to lack a natural feeling for the amplitude of Handel's lines. Yet there's much to enjoy here too, the beauty of the actual sound, the immaculate control, the many telling and musicianly touches of phrasing.
Veronica Cangemi makes a charming Dalinda, light, spirited and duly agile, with some gently pathetic expression in the delightful siciliana song early in Act 2. Ewa Podles brings her large, resonant voice to Polinesso's music; and the King of Scotland's fatherly music is done with due fullness and warmth by Denis Sedov, who covers the two-octave range with comfort and resonance. Despite the driven quality of Minkowski's performance, especially in the high dramatic music of the latter part of the opera, the sheer passion of this set does give it claims to be considered first choice.
— Gramophone Classical Music Guide


Performer:
Ariodante - Anne Sofie Von Otter
Ginevra - Lynne Dawson
Polinesso – Ewa Podles
Dalinda - Verónica Cangemi
Lurcanio - Richard Croft
Il Re di Scozia - Denis Sedov
Odoardo - Luc Coadou
Choeur des Musiciens du Louvre
Les Musiciens du Louvre
Conductor - Marc Minkowski

Track List:
CD1:
01. Ouverture I
02. Ouverture II
03. Atto I. Arioso Ginevra: Vezzi, lusinghe, e brio
04. Recitativo Dalinda, Ginevra: Ami dunque, o signora?
05. Aria Ginevra: Orrinda agli occhi miei
06. Recitativo Polinesso, Dalinda: Orgogliosa beltade!
07. Aria Dalinda: Apri le luci
08. Recitativo Polinesso: Mie speranze, che fate?
09. Aria Polinesso: Coperta la frode
10. Arioso Ariodante: Qui d'amor, nel suo linguaggio
11. Recitativo Ariodante, Ginevra: T'amero dunque sempre idolo mio
12. Duetto Ginevra, Ariodante: Prendi da questa mano
13. Recitativo Re, Ginevra, Ariodante: No vi turbate
14. Aria Ginevra: Volate, amori
15. Recitativo Re, Odoardo: Vanne pronto, Odoardo
16. Aria Re: Voli colla sua tromba
17. Recitativo Ariodante: Oh! felice e mio core!
18. Aria Ariodante: Con l'ali di, constanza
19. Recitativo Polinesso, Dalinda: Conosco il merto tuo, cara Dalinda
20. Aria Polinesso: Spero per voi, si, si
21. Recitativo Lurcanio, Dalinda: Dalinda, in occidente
22. Aria Lurcanio: Del mio sol vezzosi rai
23. Recitativo Dalinda: Ah! che quest'alma amante
24. Aria Dalinda: Il primo ardor
25. Recitativo Ariodante: Pare, ovunque mi aggiri
26. Sinfonia
27. Duetto Ginevra, Ariodante: Ser rinasce nel mio cor
28. Coro: Si godete al vostro amor
29. Ballo: Gavotte
30. Ballo: Musette I
31. Ballo: Musette II
32. Ballo: Allegro
33. Coro: Si godete al vostro amor
CD2:
01. Atto II. Sinfonia
02. Recitativo Polinesso: Di Dalinda l'amore
03. Aria Ariodante: Tu, preparati a morire
04. Recitativo Polinesso, Dalinda, Lurcanio, Ariodante: Ginevra? O mio signore!
05. Aria Lurcanio: Tu vivi, e punito
06. Recitativo Ariodante: E vivo ancora?
07. Aria Ariodante: Scherza infida in grembo al drudo
08. Recitativo Polinesso, Dalinda: Lo stral feri nel segno
09. Arioso Dalinda: Se tanto piace al cor
10. Recitativo Polinesso: Felice fu il mio inganno
11. Aria Polinesso: Se l'inganno sortisce felice
12. Recitativo Re, Odoardo: Andiam, fidi, al consiglio
13. Aria Re: Invida sorte avara
14. Aria Ginevra: Mi palpita il core
15. Recitativo Dalinda, Re, Ginevra: Sta' lieta, o principessa!
16. Aria Lurcanio: Il tuo sangue, ed il tuo zelo
17. Recitativo Odoardo, Dalinda, Ginevra, Re: Quante sventure un giorno
18. Recitativo accompagnato Ginevra, Dalinda: A me impudica
19. Aria Ginevra: Il mio crudel martoro
20. Ballo: Entree des songes agreables
21. Ballo: Entree des songes funestes
22. Ballo: Entree des songes agreables effrayes
23. Ballo: Le combat des songes funestes et agreables
CD3:
01. Atto III. Sinfonia ed Arioso Ariodante: Numi! Lasciarmi vivere
02. Recitativo Dalinda, Ariodante: Perfidi! io son tradita!
03. Aria Ariodante: Cieca notte, infidi sguardi
04. Recitativo Dalinda: Ingrato Polinesso!
05. Aria Dalinda: Neghittosi or voi che fate?
06. Recitativo Odoardo, Re, Polinesso: Sire, deh, non negare
07. Aria Polinesso: Dover, giustizia, amor
08. Recitativo Re, Ginevra: Or venga a me la figlia
09. Aria Ginevra: Io ti bacio, o mano augusta
10. Recitativo Re, Ginevra: Figlia, da dubbia sorte
11. Aria Re: Al sen ti stringo, e parto
12. Recitativo Ginevra: Cosi mi lascia il padre?
13. Aria Ginevra: Si, morro
14. Sinfonia. Recitativo: Arrida il cielo alla giustizia
15. Aria Ariodante: Dopo notte, atra e funesta
16. Recitativo Lurcanio, Dalinda: Dalinda! ecco risorge
17. Duetto Lurcanio, Dalinda: Dite spera, e son content
18. Recitativo Ginevra: Da dubbia infausta sorte
19. Arioso Ginevra: Manca, oh Dei!
20. Recitativo Re, Ariodante, Dalinda, Lurcanio, Ginevra: Figlia, innocente figlia!
21. Duetto Ariodante, Ginevra: Bramo aver mille vite
22. Coro: Ognuno acclami bella virtute
23. Balletto
24. Rondeau
25. Coro: Sa trionfar ognor virtute in ogni cor


Exact Audio Copy V1.3 from 2. September 2016

EAC extraction logfile from 2. September 2018, 9:22

Marc Minkowski, Les Musiciens du Louvre / Handel - Ariodante CD1

Used drive : HL-DT-STDVDRAM GH24NS95 Adapter: 1 ID: 0

Read mode : Secure
Utilize accurate stream : Yes
Defeat audio cache : Yes
Make use of C2 pointers : No

Read offset correction : 6
Overread into Lead-In and Lead-Out : No
Fill up missing offset samples with silence : Yes
Delete leading and trailing silent blocks : No
Null samples used in CRC calculations : Yes
Used interface : Native Win32 interface for Win NT & 2000

Used output format : User Defined Encoder
Selected bitrate : 128 kBit/s
Quality : High
Add ID3 tag : No
Command line compressor : C:\Program Files\Exact Audio Copy\Flac\flac.exe
Additional command line options : -V -8 -T "Date=%year%" -T "Genre=%genre%" %source%


TOC of the extracted CD

Track | Start | Length | Start sector | End sector
––––––––––––––––––––––––––––-
1 | 0:00.00 | 3:28.67 | 0 | 15666
2 | 3:28.67 | 1:37.33 | 15667 | 22974
3 | 5:06.25 | 2:18.70 | 22975 | 33394
4 | 7:25.20 | 0:52.47 | 33395 | 37341
5 | 8:17.67 | 2:12.50 | 37342 | 47291
6 | 10:30.42 | 0:27.33 | 47292 | 49349
7 | 10:58.00 | 3:14.55 | 49350 | 63954
8 | 14:12.55 | 0:28.00 | 63955 | 66054
9 | 14:40.55 | 3:29.20 | 66055 | 81749
10 | 18:10.00 | 2:10.62 | 81750 | 91561
11 | 20:20.62 | 0:40.00 | 91562 | 94561
12 | 21:00.62 | 1:36.03 | 94562 | 101764
13 | 22:36.65 | 1:14.45 | 101765 | 107359
14 | 23:51.35 | 3:30.07 | 107360 | 123116
15 | 27:21.42 | 0:38.53 | 123117 | 126019
16 | 28:00.20 | 3:40.47 | 126020 | 142566
17 | 31:40.67 | 0:10.70 | 142567 | 143386
18 | 31:51.62 | 6:15.50 | 143387 | 171561
19 | 38:07.37 | 1:24.60 | 171562 | 177921
20 | 39:32.22 | 3:26.65 | 177922 | 193436
21 | 42:59.12 | 0:31.38 | 193437 | 195799
22 | 43:30.50 | 4:42.47 | 195800 | 216996
23 | 48:13.22 | 0:11.23 | 216997 | 217844
24 | 48:24.45 | 3:00.35 | 217845 | 231379
25 | 51:25.05 | 0:45.52 | 231380 | 234806
26 | 52:10.57 | 0:44.40 | 234807 | 238146
27 | 52:55.22 | 1:04.30 | 238147 | 242976
28 | 53:59.52 | 0:54.73 | 242977 | 247099
29 | 54:54.50 | 0:56.12 | 247100 | 251311
30 | 55:50.62 | 2:02.03 | 251312 | 260464
31 | 57:52.65 | 0:49.22 | 260465 | 264161
32 | 58:42.12 | 1:33.18 | 264162 | 271154
33 | 60:15.30 | 1:00.45 | 271155 | 275699


Range status and errors

Selected range

Filename C:\Program Files\Exact Audio Copy\Flac\Handel - Ariodante CD1.wav

Peak level 99.9 %
Extraction speed 7.2 X
Range quality 100.0 %
Test CRC C4395F9B
Copy CRC C4395F9B
Copy OK

No errors occurred

End of status report

==== Log checksum D665FB13C88974D4083307A83DDFC4E384E4D6C0CA46ACC093F9C00999DD7C92 ====


Exact Audio Copy V1.3 from 2. September 2016

EAC extraction logfile from 2. September 2018, 9:46

Marc Minkowski, Les Musiciens du Louvre / Handel - Ariodante CD2

Used drive : HL-DT-STDVDRAM GH24NS95 Adapter: 1 ID: 0

Read mode : Secure
Utilize accurate stream : Yes
Defeat audio cache : Yes
Make use of C2 pointers : No

Read offset correction : 6
Overread into Lead-In and Lead-Out : No
Fill up missing offset samples with silence : Yes
Delete leading and trailing silent blocks : No
Null samples used in CRC calculations : Yes
Used interface : Native Win32 interface for Win NT & 2000

Used output format : User Defined Encoder
Selected bitrate : 128 kBit/s
Quality : High
Add ID3 tag : No
Command line compressor : C:\Program Files\Exact Audio Copy\Flac\flac.exe
Additional command line options : -V -8 -T "Date=%year%" -T "Genre=%genre%" %source%


TOC of the extracted CD

Track | Start | Length | Start sector | End sector
––––––––––––––––––––––––––––-
1 | 0:00.00 | 1:10.47 | 0 | 5296
2 | 1:10.47 | 1:32.60 | 5297 | 12256
3 | 2:43.32 | 3:50.65 | 12257 | 29571
4 | 6:34.22 | 0:24.05 | 29572 | 31376
5 | 6:58.27 | 3:13.48 | 31377 | 45899
6 | 10:12.00 | 0:24.30 | 45900 | 47729
7 | 10:36.30 | 11:51.45 | 47730 | 101099
8 | 22:28.00 | 0:35.40 | 101100 | 103764
9 | 23:03.40 | 3:01.35 | 103765 | 117374
10 | 26:05.00 | 0:12.40 | 117375 | 118314
11 | 26:17.40 | 3:54.47 | 118315 | 135911
12 | 30:12.12 | 1:19.53 | 135912 | 141889
13 | 31:31.65 | 5:33.10 | 141890 | 166874
14 | 37:05.00 | 2:12.35 | 166875 | 176809
15 | 39:17.35 | 2:23.57 | 176810 | 187591
16 | 41:41.17 | 3:47.58 | 187592 | 204674
17 | 45:29.00 | 0:21.70 | 204675 | 206319
18 | 45:50.70 | 2:08.12 | 206320 | 215931
19 | 47:59.07 | 9:23.65 | 215932 | 258221
20 | 57:22.72 | 1:55.53 | 258222 | 266899
21 | 59:18.50 | 1:31.32 | 266900 | 273756
22 | 60:50.07 | 0:50.15 | 273757 | 277521
23 | 61:40.22 | 1:40.53 | 277522 | 285074


Range status and errors

Selected range

Filename C:\Program Files\Exact Audio Copy\Flac\Handel - Ariodante CD2.wav

Peak level 99.9 %
Extraction speed 7.3 X
Range quality 100.0 %
Test CRC C2BCD750
Copy CRC C2BCD750
Copy OK

No errors occurred

End of status report

==== Log checksum 98D4363BFE0778B2D90A58D0106CC9604874D2372C1B316FAED52F04580EDFC9 ====


Exact Audio Copy V1.3 from 2. September 2016

EAC extraction logfile from 2. September 2018, 10:52

Marc Minkowski, Les Musiciens du Louvre / Handel - Ariodante CD3

Used drive : HL-DT-STDVDRAM GH24NS95 Adapter: 1 ID: 0

Read mode : Secure
Utilize accurate stream : Yes
Defeat audio cache : Yes
Make use of C2 pointers : No

Read offset correction : 6
Overread into Lead-In and Lead-Out : No
Fill up missing offset samples with silence : Yes
Delete leading and trailing silent blocks : No
Null samples used in CRC calculations : Yes
Used interface : Native Win32 interface for Win NT & 2000

Used output format : User Defined Encoder
Selected bitrate : 128 kBit/s
Quality : High
Add ID3 tag : No
Command line compressor : C:\Program Files\Exact Audio Copy\Flac\flac.exe
Additional command line options : -V -8 -T "Date=%year%" -T "Genre=%genre%" %source%


TOC of the extracted CD

Track | Start | Length | Start sector | End sector
––––––––––––––––––––––––––––-
1 | 0:00.32 | 1:43.60 | 32 | 7816
2 | 1:44.17 | 1:17.28 | 7817 | 13619
3 | 3:01.45 | 6:08.62 | 13620 | 41281
4 | 9:10.32 | 0:15.00 | 41282 | 42406
5 | 9:25.32 | 2:31.45 | 42407 | 53776
6 | 11:57.02 | 0:27.63 | 53777 | 55864
7 | 12:24.65 | 3:06.42 | 55865 | 69856
8 | 15:31.32 | 1:12.45 | 69857 | 75301
9 | 16:44.02 | 3:19.63 | 75302 | 90289
10 | 20:03.65 | 0:33.20 | 90290 | 92784
11 | 20:37.10 | 3:36.62 | 92785 | 109046
12 | 24:13.72 | 0:22.28 | 109047 | 110724
13 | 24:36.25 | 1:27.42 | 110725 | 117291
14 | 26:03.67 | 2:40.30 | 117292 | 129321
15 | 28:44.22 | 6:45.10 | 129322 | 159706
16 | 35:29.32 | 0:26.00 | 159707 | 161656
17 | 35:55.32 | 4:28.60 | 161657 | 181816
18 | 40:24.17 | 0:49.65 | 181817 | 185556
19 | 41:14.07 | 1:21.05 | 185557 | 191636
20 | 42:35.12 | 1:06.28 | 191637 | 196614
21 | 43:41.40 | 4:28.60 | 196615 | 216774
22 | 48:10.25 | 2:00.22 | 216775 | 225796
23 | 50:10.47 | 1:16.40 | 225797 | 231536
24 | 51:27.12 | 0:49.65 | 231537 | 235276
25 | 52:17.02 | 1:35.30 | 235277 | 242431


Range status and errors

Selected range

Filename C:\Program Files\Exact Audio Copy\Flac\Handel - Ariodante CD3.wav

Peak level 99.9 %
Extraction speed 1.7 X
Range quality 100.0 %
Test CRC 2DDBAEA2
Copy CRC 2DDBAEA2
Copy OK

No errors occurred

End of status report

==== Log checksum 32FB3729C9569721BCD6F045F12976467975998B00648684B019D23D1F645DDD ====

Marc Minkowski, Les Musiciens du Louvre - Handel: Ariodante (1997)